  0
SECTION
  2
HEADER
  9
$ACADVER
  1
AC1015
  9
$ACADMAINTVER
 70
    20
  9
$DWGCODEPAGE
  3
ANSI_932
  9
$INSBASE
 10
0.0
 20
0.0
 30
0.0
  9
$EXTMIN
 10
82.8970623742
 20
35.3531589537
 30
-28.4
  9
$EXTMAX
 10
802.8970623741999
 20
1147.3531589537
 30
28.6
  9
$LIMMIN
 10
0.0
 20
0.0
  9
$LIMMAX
 10
0.0
 20
0.0
  9
$ORTHOMODE
 70
     0
  9
$REGENMODE
 70
     1
  9
$FILLMODE
 70
     1
  9
$QTEXTMODE
 70
     0
  9
$MIRRTEXT
 70
     1
  9
$LTSCALE
 40
1.0
  9
$ATTMODE
 70
     1
  9
$TEXTSIZE
 40
2.5
  9
$TRACEWID
 40
1.0
  9
$TEXTSTYLE
  7
STANDARD
  9
$CLAYER
  8
0
  9
$CELTYPE
  6
ByLayer
  9
$CECOLOR
 62
   256
  9
$CELTSCALE
 40
1.0
  9
$DISPSILH
 70
     0
  9
$DIMSCALE
 40
1.0
  9
$DIMASZ
 40
8.0
  9
$DIMEXO
 40
4.0
  9
$DIMDLI
 40
3.75
  9
$DIMRND
 40
0.0
  9
$DIMDLE
 40
0.0
  9
$DIMEXE
 40
4.0
  9
$DIMTP
 40
0.0
  9
$DIMTM
 40
0.0
  9
$DIMTXT
 40
14.1111111111
  9
$DIMCEN
 40
2.5
  9
$DIMTSZ
 40
0.0
  9
$DIMTOL
 70
     0
  9
$DIMLIM
 70
     0
  9
$DIMTIH
 70
     1
  9
$DIMTOH
 70
     1
  9
$DIMSE1
 70
     0
  9
$DIMSE2
 70
     0
  9
$DIMTAD
 70
     1
  9
$DIMZIN
 70
     0
  9
$DIMBLK
  1

  9
$DIMASO
 70
     1
  9
$DIMSHO
 70
     1
  9
$DIMPOST
  1

  9
$DIMAPOST
  1

  9
$DIMALT
 70
     0
  9
$DIMALTD
 70
     3
  9
$DIMALTF
 40
0.0393700787
  9
$DIMLFAC
 40
1.0
  9
$DIMTOFL
 70
     1
  9
$DIMTVP
 40
0.0
  9
$DIMTIX
 70
     0
  9
$DIMSOXD
 70
     0
  9
$DIMSAH
 70
     0
  9
$DIMBLK1
  1

  9
$DIMBLK2
  1

  9
$DIMSTYLE
  2
ISO-25
  9
$DIMCLRD
 70
     0
  9
$DIMCLRE
 70
     0
  9
$DIMCLRT
 70
     0
  9
$DIMTFAC
 40
1.0
  9
$DIMGAP
 40
6.096
  9
$DIMJUST
 70
     0
  9
$DIMSD1
 70
     0
  9
$DIMSD2
 70
     0
  9
$DIMTOLJ
 70
     0
  9
$DIMTZIN
 70
     0
  9
$DIMALTZ
 70
     0
  9
$DIMALTTZ
 70
     0
  9
$DIMUPT
 70
     0
  9
$DIMDEC
 70
     2
  9
$DIMTDEC
 70
     2
  9
$DIMALTU
 70
     2
  9
$DIMALTTD
 70
     3
  9
$DIMTXSTY
  7
STANDARD
  9
$DIMAUNIT
 70
     0
  9
$DIMADEC
 70
     0
  9
$DIMALTRND
 40
0.0
  9
$DIMAZIN
 70
     0
  9
$DIMDSEP
 70
    44
  9
$DIMATFIT
 70
     3
  9
$DIMFRAC
 70
     0
  9
$DIMLDRBLK
  1

  9
$DIMLUNIT
 70
     2
  9
$DIMLWD
 70
    -2
  9
$DIMLWE
 70
    -2
  9
$DIMTMOVE
 70
     0
  9
$LUNITS
 70
     2
  9
$LUPREC
 70
     2
  9
$SKETCHINC
 40
1.0
  9
$FILLETRAD
 40
10.0
  9
$AUNITS
 70
     0
  9
$AUPREC
 70
     0
  9
$MENU
  1
.
  9
$ELEVATION
 40
0.0
  9
$PELEVATION
 40
0.0
  9
$THICKNESS
 40
0.0
  9
$LIMCHECK
 70
     0
  9
$CHAMFERA
 40
10.0
  9
$CHAMFERB
 40
10.0
  9
$CHAMFERC
 40
20.0
  9
$CHAMFERD
 40
0.0
  9
$SKPOLY
 70
     0
  9
$TDCREATE
 40
2454163.434642107
  9
$TDUCREATE
 40
2454163.059642106
  9
$TDUPDATE
 40
2454855.368855429
  9
$TDUUPDATE
 40
2454854.993855429
  9
$TDINDWG
 40
0.0012237847
  9
$TDUSRTIMER
 40
0.0012236111
  9
$USRTIMER
 70
     1
  9
$ANGBASE
 50
0.0
  9
$ANGDIR
 70
     0
  9
$PDMODE
 70
     0
  9
$PDSIZE
 40
-1.0
  9
$PLINEWID
 40
0.0
  9
$SPLFRAME
 70
     0
  9
$SPLINETYPE
 70
     6
  9
$SPLINESEGS
 70
     8
  9
$HANDSEED
  5
2DF
  9
$SURFTAB1
 70
     6
  9
$SURFTAB2
 70
     6
  9
$SURFTYPE
 70
     6
  9
$SURFU
 70
     6
  9
$SURFV
 70
     6
  9
$UCSBASE
  2

  9
$UCSNAME
  2

  9
$UCSORG
 10
0.0
 20
0.0
 30
0.0
  9
$UCSXDIR
 10
1.0
 20
0.0
 30
0.0
  9
$UCSYDIR
 10
0.0
 20
1.0
 30
0.0
  9
$UCSORTHOREF
  2

  9
$UCSORTHOVIEW
 70
     0
  9
$UCSORGTOP
 10
0.0
 20
0.0
 30
0.0
  9
$UCSORGBOTTOM
 10
0.0
 20
0.0
 30
0.0
  9
$UCSORGLEFT
 10
0.0
 20
0.0
 30
0.0
  9
$UCSORGRIGHT
 10
0.0
 20
0.0
 30
0.0
  9
$UCSORGFRONT
 10
0.0
 20
0.0
 30
0.0
  9
$UCSORGBACK
 10
0.0
 20
0.0
 30
0.0
  9
$PUCSBASE
  2

  9
$PUCSNAME
  2

  9
$PUCSORG
 10
0.0
 20
0.0
 30
0.0
  9
$PUCSXDIR
 10
1.0
 20
0.0
 30
0.0
  9
$PUCSYDIR
 10
0.0
 20
1.0
 30
0.0
  9
$PUCSORTHOREF
  2

  9
$PUCSORTHOVIEW
 70
     0
  9
$PUCSORGTOP
 10
0.0
 20
0.0
 30
0.0
  9
$PUCSORGBOTTOM
 10
0.0
 20
0.0
 30
0.0
  9
$PUCSORGLEFT
 10
0.0
 20
0.0
 30
0.0
  9
$PUCSORGRIGHT
 10
0.0
 20
0.0
 30
0.0
  9
$PUCSORGFRONT
 10
0.0
 20
0.0
 30
0.0
  9
$PUCSORGBACK
 10
0.0
 20
0.0
 30
0.0
  9
$USERI1
 70
     0
  9
$USERI2
 70
     0
  9
$USERI3
 70
     0
  9
$USERI4
 70
     0
  9
$USERI5
 70
     0
  9
$USERR1
 40
0.0
  9
$USERR2
 40
0.0
  9
$USERR3
 40
0.0
  9
$USERR4
 40
0.0
  9
$USERR5
 40
0.0
  9
$WORLDVIEW
 70
     1
  9
$SHADEDGE
 70
     3
  9
$SHADEDIF
 70
    70
  9
$TILEMODE
 70
     1
  9
$MAXACTVP
 70
    64
  9
$PINSBASE
 10
0.0
 20
0.0
 30
0.0
  9
$PLIMCHECK
 70
     0
  9
$PEXTMIN
 10
1.000000000000000E+20
 20
1.000000000000000E+20
 30
1.000000000000000E+20
  9
$PEXTMAX
 10
-1.000000000000000E+20
 20
-1.000000000000000E+20
 30
-1.000000000000000E+20
  9
$PLIMMIN
 10
0.0
 20
0.0
  9
$PLIMMAX
 10
420.0
 20
297.0
  9
$UNITMODE
 70
     0
  9
$VISRETAIN
 70
     1
  9
$PLINEGEN
 70
     0
  9
$PSLTSCALE
 70
     1
  9
$TREEDEPTH
 70
  3020
  9
$CMLSTYLE
  2
Standard
  9
$CMLJUST
 70
     0
  9
$CMLSCALE
 40
20.0
  9
$PROXYGRAPHICS
 70
     1
  9
$MEASUREMENT
 70
     1
  9
$CELWEIGHT
370
    -1
  9
$ENDCAPS
280
     0
  9
$JOINSTYLE
280
     0
  9
$LWDISPLAY
290
     1
  9
$INSUNITS
 70
     4
  9
$HYPERLINKBASE
  1

  9
$STYLESHEET
  1

  9
$XEDIT
290
     1
  9
$CEPSNTYPE
380
     0
  9
$PSTYLEMODE
290
     1
  9
$FINGERPRINTGUID
  2
{38DCC04F-3AD9-4E56-9EE9-89AC6F2CC850}
  9
$VERSIONGUID
  2
{FE403E14-0226-4448-A8DB-A872665E64C2}
  9
$EXTNAMES
290
     1
  9
$PSVPSCALE
 40
0.0
  9
$OLESTARTUP
290
     0
  0
ENDSEC
  0
SECTION
  2
CLASSES
  0
CLASS
  1
ACDBDICTIONARYWDFLT
  2
AcDbDictionaryWithDefault
  3
ObjectDBX Classes
 90
        0
280
     0
281
     0
  0
CLASS
  1
ACDBPLACEHOLDER
  2
AcDbPlaceHolder
  3
ObjectDBX Classes
 90
        0
280
     0
281
     0
  0
CLASS
  1
LAYOUT
  2
AcDbLayout
  3
ObjectDBX Classes
 90
        0
280
     0
281
     0
  0
CLASS
  1
DICTIONARYVAR
  2
AcDbDictionaryVar
  3
ObjectDBX Classes
 90
        0
280
     0
281
     0
  0
ENDSEC
  0
SECTION
  2
TABLES
  0
TABLE
  2
VPORT
  5
8
330
0
100
AcDbSymbolTable
 70
     2
  0
VPORT
  5
2D7
330
8
100
AcDbSymbolTableRecord
100
AcDbViewportTableRecord
  2
*Active
 70
     0
 10
0.0
 20
0.0
 11
1.0
 21
1.0
 12
1099.592912680831
 22
594.0
 13
0.0
 23
0.0
 14
10.0
 24
10.0
 15
10.0
 25
10.0
 16
0.0
 26
0.0
 36
1.0
 17
0.0
 27
0.0
 37
0.0
 40
1188.297180469116
 41
1.637339055793991
 42
50.0
 43
0.0
 44
0.0
 50
0.0
 51
0.0
 71
     0
 72
  2000
 73
     1
 74
     3
 75
     0
 76
     0
 77
     0
 78
     0
281
     0
 65
     1
110
0.0
120
0.0
130
0.0
111
1.0
121
0.0
131
0.0
112
0.0
122
1.0
132
0.0
 79
     0
146
0.0
  0
ENDTAB
  0
TABLE
  2
LTYPE
  5
5
330
0
100
AcDbSymbolTable
 70
     6
  0
LTYPE
  5
14
330
5
100
AcDbSymbolTableRecord
100
AcDbLinetypeTableRecord
  2
ByBlock
 70
     0
  3

 72
    65
 73
     0
 40
0.0
  0
LTYPE
  5
15
330
5
100
AcDbSymbolTableRecord
100
AcDbLinetypeTableRecord
  2
ByLayer
 70
     0
  3

 72
    65
 73
     0
 40
0.0
  0
LTYPE
  5
16
330
5
100
AcDbSymbolTableRecord
100
AcDbLinetypeTableRecord
  2
Continuous
 70
     0
  3
Solid line
 72
    65
 73
     0
 40
0.0
  0
LTYPE
  5
2A
330
5
100
AcDbSymbolTableRecord
100
AcDbLinetypeTableRecord
  2
HIDDEN
 70
     0
  3
Hidden __ __ __ __ __ __ __ __ __ __ __ __ __ __
 72
    65
 73
     2
 40
1.905
 49
1.27
 74
     0
 49
-0.635
 74
     0
  0
LTYPE
  5
2B
330
5
100
AcDbSymbolTableRecord
100
AcDbLinetypeTableRecord
  2
PHANTOM
 70
     0
  3
Phantom ______  __  __  ______  __  __  ______
 72
    65
 73
     6
 40
12.7
 49
6.349999999999999
 74
     0
 49
-1.27
 74
     0
 49
1.27
 74
     0
 49
-1.27
 74
     0
 49
1.27
 74
     0
 49
-1.27
 74
     0
  0
LTYPE
  5
2C
330
5
100
AcDbSymbolTableRecord
100
AcDbLinetypeTableRecord
  2
CENTER
 70
     0
  3
Center ____ _ ____ _ ____ _ ____ _ ____ _ ____
 72
    65
 73
     4
 40
10.16
 49
6.349999999999999
 74
     0
 49
-1.27
 74
     0
 49
1.27
 74
     0
 49
-1.27
 74
     0
  0
LTYPE
  5
2D
330
5
100
AcDbSymbolTableRecord
100
AcDbLinetypeTableRecord
  2
CENTERX2
 70
     0
  3
Center (2x) ________  __  ________  __  _____
 72
    65
 73
     4
 40
20.32
 49
12.7
 74
     0
 49
-2.54
 74
     0
 49
2.54
 74
     0
 49
-2.54
 74
     0
  0
LTYPE
  5
2E
330
5
100
AcDbSymbolTableRecord
100
AcDbLinetypeTableRecord
  2
DOT2
 70
     0
  3
Dot (.5x) ........................................
 72
    65
 73
     2
 40
0.635
 49
0.0
 74
     0
 49
-0.635
 74
     0
  0
ENDTAB
  0
TABLE
  2
LAYER
  5
2
330
0
100
AcDbSymbolTable
 70
     4
  0
LAYER
  5
10
330
2
100
AcDbSymbolTableRecord
100
AcDbLayerTableRecord
  2
0
 70
     0
 62
     7
  6
Continuous
370
    -3
390
F
  0
LAYER
  5
2F
330
2
100
AcDbSymbolTableRecord
100
AcDbLayerTableRecord
  2
SLD-0
 70
     0
 62
     7
  6
Continuous
370
     0
390
F
  0
LAYER
  5
30
330
2
100
AcDbSymbolTableRecord
100
AcDbLayerTableRecord
  2
WAKU
 70
     0
 62
     7
  6
Continuous
370
     0
390
F
  0
LAYER
  5
76
330
2
100
AcDbSymbolTableRecord
100
AcDbLayerTableRecord
  2
Defpoints
 70
     0
 62
     7
  6
Continuous
290
     0
370
    -3
390
F
  0
ENDTAB
  0
TABLE
  2
STYLE
  5
3
330
0
100
AcDbSymbolTable
 70
     3
  0
STYLE
  5
11
330
3
100
AcDbSymbolTableRecord
100
AcDbTextStyleTableRecord
  2
STANDARD
 70
     0
 40
0.0
 41
1.0
 50
0.0
 71
     0
 42
2.5
  3
MS UI Gothic
  4

  0
STYLE
  5
44
330
3
100
AcDbSymbolTableRecord
100
AcDbTextStyleTableRecord
  2
SLDTEXTSTYLE0
 70
     0
 40
0.0
 41
1.0
 50
0.0
 71
     0
 42
0.2
  3
MS UI Gothic
  4

  0
STYLE
  5
46
330
3
100
AcDbSymbolTableRecord
100
AcDbTextStyleTableRecord
  2
SLDTEXTSTYLE1
 70
     0
 40
0.0
 41
1.0
 50
0.0
 71
     0
 42
0.2
  3
ＭＳ Ｐゴシック
  4

  0
ENDTAB
  0
TABLE
  2
VIEW
  5
6
330
0
100
AcDbSymbolTable
 70
     0
  0
ENDTAB
  0
TABLE
  2
UCS
  5
7
330
0
100
AcDbSymbolTable
 70
     0
  0
ENDTAB
  0
TABLE
  2
APPID
  5
9
330
0
100
AcDbSymbolTable
 70
     1
  0
APPID
  5
12
330
9
100
AcDbSymbolTableRecord
100
AcDbRegAppTableRecord
  2
ACAD
 70
     0
  0
ENDTAB
  0
TABLE
  2
DIMSTYLE
  5
A
330
0
100
AcDbSymbolTable
 70
     4
100
AcDbDimStyleTable
 71
     0
  0
DIMSTYLE
105
27
330
A
100
AcDbSymbolTableRecord
100
AcDbDimStyleTableRecord
  2
ISO-25
 70
     0
 41
2.5
 42
0.625
 43
3.75
 44
1.25
 73
     0
 74
     0
 77
     1
 78
     8
140
2.5
141
2.5
143
0.0393700787
147
0.625
171
     3
172
     1
271
     2
272
     2
274
     3
278
    44
283
     0
284
     8
340
11
  0
DIMSTYLE
105
83
102
{ACAD_REACTORS
330
75
330
98
102
}
330
A
100
AcDbSymbolTableRecord
100
AcDbDimStyleTableRecord
  2
SLDDIMSTYLE0
 70
     0
 41
8.0
 44
0.0
 73
     0
 74
     0
 77
     3
 78
    12
140
14.1111111111
143
0.0393700787
144
4.0
147
3.527777777799999
170
     1
171
     3
173
     1
271
     0
272
     0
274
     3
284
    12
340
44
341
84
343
84
344
84
  0
DIMSTYLE
105
14A
102
{ACAD_REACTORS
330
13C
330
159
330
173
330
1A8
330
246
102
}
330
A
100
AcDbSymbolTableRecord
100
AcDbDimStyleTableRecord
  2
SLDDIMSTYLE1
 70
     0
 41
8.0
 44
0.0
 73
     0
 74
     0
 77
     3
 78
    12
140
14.1111111111
143
0.0393700787
147
3.527777777799999
170
     1
171
     3
173
     1
271
     0
272
     0
274
     3
284
    12
340
44
341
84
343
84
344
84
  0
DIMSTYLE
105
199
102
{ACAD_REACTORS
330
18E
102
}
330
A
100
AcDbSymbolTableRecord
100
AcDbDimStyleTableRecord
  2
SLDDIMSTYLE2
 70
     0
 41
8.0
 44
0.0
 78
    12
140
14.1111111111
143
0.0393700787
144
4.0
147
3.527777777799999
170
     1
171
     3
173
     1
271
     0
272
     0
274
     3
284
    12
340
44
341
84
343
84
344
84
  0
ENDTAB
  0
TABLE
  2
BLOCK_RECORD
  5
1
330
0
100
AcDbSymbolTable
 70
    22
  0
BLOCK_RECORD
  5
1F
330
1
100
AcDbSymbolTableRecord
100
AcDbBlockTableRecord
  2
*Model_Space
340
22
  0
BLOCK_RECORD
  5
1B
330
1
100
AcDbSymbolTableRecord
100
AcDbBlockTableRecord
  2
*Paper_Space
340
1E
  0
BLOCK_RECORD
  5
23
330
1
100
AcDbSymbolTableRecord
100
AcDbBlockTableRecord
  2
*Paper_Space0
340
26
  0
BLOCK_RECORD
  5
77
330
1
100
AcDbSymbolTableRecord
100
AcDbBlockTableRecord
  2
*D1
340
0
  0
BLOCK_RECORD
  5
84
330
1
100
AcDbSymbolTableRecord
100
AcDbBlockTableRecord
  2
_Open30
340
0
102
{BLKREFS
331
8A
331
8B
331
A6
331
A7
331
14B
331
14C
331
166
331
167
331
181
331
182
331
19B
331
1B5
331
1B6
331
253
331
254
102
}
  0
BLOCK_RECORD
  5
99
330
1
100
AcDbSymbolTableRecord
100
AcDbBlockTableRecord
  2
*D3
340
0
  0
BLOCK_RECORD
  5
B4
330
1
100
AcDbSymbolTableRecord
100
AcDbBlockTableRecord
  2
SW_CENTERMARKSYMBOL_0
340
0
102
{BLKREFS
331
BF
102
}
  0
BLOCK_RECORD
  5
C0
330
1
100
AcDbSymbolTableRecord
100
AcDbBlockTableRecord
  2
SW_CENTERMARKSYMBOL_1
340
0
102
{BLKREFS
331
CB
102
}
  0
BLOCK_RECORD
  5
CC
330
1
100
AcDbSymbolTableRecord
100
AcDbBlockTableRecord
  2
SW_CENTERMARKSYMBOL_2
340
0
102
{BLKREFS
331
D7
102
}
  0
BLOCK_RECORD
  5
13D
330
1
100
AcDbSymbolTableRecord
100
AcDbBlockTableRecord
  2
*D7
340
0
  0
BLOCK_RECORD
  5
15A
330
1
100
AcDbSymbolTableRecord
100
AcDbBlockTableRecord
  2
*D8
340
0
  0
BLOCK_RECORD
  5
174
330
1
100
AcDbSymbolTableRecord
100
AcDbBlockTableRecord
  2
*D9
340
0
  0
BLOCK_RECORD
  5
18F
330
1
100
AcDbSymbolTableRecord
100
AcDbBlockTableRecord
  2
*D10
340
0
  0
BLOCK_RECORD
  5
1A9
330
1
100
AcDbSymbolTableRecord
100
AcDbBlockTableRecord
  2
*D11
340
0
  0
BLOCK_RECORD
  5
247
330
1
100
AcDbSymbolTableRecord
100
AcDbBlockTableRecord
  2
*D12
340
0
  0
BLOCK_RECORD
  5
260
330
1
100
AcDbSymbolTableRecord
100
AcDbBlockTableRecord
  2
SW_CENTERMARKSYMBOL_3
340
0
102
{BLKREFS
331
26B
102
}
  0
BLOCK_RECORD
  5
26C
330
1
100
AcDbSymbolTableRecord
100
AcDbBlockTableRecord
  2
SW_CENTERMARKSYMBOL_4
340
0
102
{BLKREFS
331
277
102
}
  0
BLOCK_RECORD
  5
278
330
1
100
AcDbSymbolTableRecord
100
AcDbBlockTableRecord
  2
SW_CENTERMARKSYMBOL_5
340
0
102
{BLKREFS
331
283
102
}
  0
BLOCK_RECORD
  5
284
330
1
100
AcDbSymbolTableRecord
100
AcDbBlockTableRecord
  2
SW_CENTERMARKSYMBOL_6
340
0
102
{BLKREFS
331
28F
102
}
  0
BLOCK_RECORD
  5
290
330
1
100
AcDbSymbolTableRecord
100
AcDbBlockTableRecord
  2
SW_CENTERMARKSYMBOL_7
340
0
102
{BLKREFS
331
29B
102
}
  0
BLOCK_RECORD
  5
29C
330
1
100
AcDbSymbolTableRecord
100
AcDbBlockTableRecord
  2
SW_CENTERMARKSYMBOL_8
340
0
102
{BLKREFS
331
2A7
102
}
  0
BLOCK_RECORD
  5
2A8
330
1
100
AcDbSymbolTableRecord
100
AcDbBlockTableRecord
  2
SW_CENTERMARKSYMBOL_9
340
0
102
{BLKREFS
331
2B3
102
}
  0
BLOCK_RECORD
  5
2B4
330
1
100
AcDbSymbolTableRecord
100
AcDbBlockTableRecord
  2
SW_CENTERMARKSYMBOL_10
340
0
102
{BLKREFS
331
2BF
102
}
  0
BLOCK_RECORD
  5
2C0
330
1
100
AcDbSymbolTableRecord
100
AcDbBlockTableRecord
  2
SW_CENTERMARKSYMBOL_11
340
0
102
{BLKREFS
331
2CB
102
}
  0
ENDTAB
  0
ENDSEC
  0
SECTION
  2
BLOCKS
  0
BLOCK
  5
20
330
1F
100
AcDbEntity
  8
0
100
AcDbBlockBegin
  2
*Model_Space
 70
     0
 10
0.0
 20
0.0
 30
0.0
  3
*Model_Space
  1

  0
ENDBLK
  5
21
330
1F
100
AcDbEntity
  8
0
100
AcDbBlockEnd
  0
BLOCK
  5
1C
330
1B
100
AcDbEntity
 67
     1
  8
0
100
AcDbBlockBegin
  2
*Paper_Space
 70
     0
 10
0.0
 20
0.0
 30
0.0
  3
*Paper_Space
  1

  0
ENDBLK
  5
1D
330
1B
100
AcDbEntity
 67
     1
  8
0
100
AcDbBlockEnd
  0
BLOCK
  5
24
330
23
100
AcDbEntity
 67
     1
  8
0
100
AcDbBlockBegin
  2
*Paper_Space0
 70
     0
 10
0.0
 20
0.0
 30
0.0
  3
*Paper_Space0
  1

  0
ENDBLK
  5
25
330
23
100
AcDbEntity
 67
     1
  8
0
100
AcDbBlockEnd
  0
BLOCK
  5
81
330
77
100
AcDbEntity
  8
0
100
AcDbBlockBegin
  2
*D1
 70
     1
 10
0.0
 20
0.0
 30
0.0
  3
*D1
  1

  0
INSERT
  5
8A
330
77
100
AcDbEntity
  8
WAKU
 62
     7
100
AcDbBlockReference
  2
_Open30
 10
182.1380660145999
 20
765.3833098773
 30
28.6
 41
8.0
 42
8.0
 50
180.0
  0
INSERT
  5
8B
330
77
100
AcDbEntity
  8
WAKU
 62
     7
100
AcDbBlockReference
  2
_Open30
 10
402.1380660145999
 20
765.3833098773
 30
28.6
 41
8.0
 42
8.0
  0
LINE
  5
8C
330
77
100
AcDbEntity
  8
WAKU
 62
     7
100
AcDbLine
 10
270.9405310288
 20
793.5898634683
 30
0.0
 11
270.9405310288
 21
779.4865866727999
 31
0.0
  0
LINE
  5
8D
330
77
100
AcDbEntity
  8
WAKU
 62
     7
100
AcDbLine
 10
270.9405310288
 20
779.4865866727999
 30
0.0
 11
277.2986291666
 21
779.4865866727999
 31
0.0
  0
LINE
  5
8E
330
77
100
AcDbEntity
  8
WAKU
 62
     7
100
AcDbLine
 10
270.9405310288
 20
793.5898634683
 30
0.0
 11
277.2986291666
 21
793.5898634683
 31
0.0
  0
LINE
  5
8F
330
77
100
AcDbEntity
  8
WAKU
 62
     7
100
AcDbLine
 10
314.7304305735
 20
793.5898634683
 30
0.0
 11
314.7304305735
 21
779.4865866727999
 31
0.0
  0
LINE
  5
90
330
77
100
AcDbEntity
  8
WAKU
 62
     7
100
AcDbLine
 10
314.7304305735
 20
779.4865866727999
 30
0.0
 11
308.3723324358
 21
779.4865866727999
 31
0.0
  0
LINE
  5
91
330
77
100
AcDbEntity
  8
WAKU
 62
     7
100
AcDbLine
 10
314.7304305735
 20
793.5898634683
 30
0.0
 11
308.3723324358
 21
793.5898634683
 31
0.0
  0
LINE
  5
92
330
77
100
AcDbEntity
  8
WAKU
 62
     7
100
AcDbLine
 10
182.1380660145999
 20
920.5426743518
 30
0.0
 11
182.1380660145999
 21
761.3833098773
 31
0.0
  0
LINE
  5
93
330
77
100
AcDbEntity
  8
WAKU
 62
     7
100
AcDbLine
 10
402.1380660145999
 20
920.5426743518
 30
0.0
 11
402.1380660145999
 21
761.3833098773
 31
0.0
  0
LINE
  5
94
330
77
100
AcDbEntity
  8
WAKU
 62
     7
100
AcDbLine
 10
182.1380660145999
 20
765.3833098773
 30
0.0
 11
402.1380660145999
 21
765.3833098773
 31
0.0
  0
MTEXT
  5
95
330
77
100
AcDbEntity
  8
WAKU
 62
     7
100
AcDbMText
 10
275.9115486466
 20
777.6984609267999
 30
0.0
 40
10.5833333333
 41
0.0
 71
     1
 72
     1
  1
%%c
  7
SLDTEXTSTYLE0
 73
     1
 44
1.0
1001
ACAD
1000
MTEXTBEGIN
1070
    73
1070
     1
1070
    44
1040
1.0
1070
    74
1070
     0
1000
MTEXTEND
  0
MTEXT
  5
96
330
77
100
AcDbEntity
  8
WAKU
 62
     7
100
AcDbMText
 10
288.6044977625
 20
777.6984609267999
 30
0.0
 40
10.5833333333
 41
0.0
 71
     1
 72
     1
  1
220
  7
SLDTEXTSTYLE0
 73
     1
 44
1.0
1001
ACAD
1000
MTEXTBEGIN
1070
    73
1070
     1
1070
    44
1040
1.0
1070
    74
1070
     0
1000
MTEXTEND
  0
MTEXT
  5
97
330
77
100
AcDbEntity
  8
WAKU
 62
     7
100
AcDbMText
 10
277.2986291666
 20
791.8017377223
 30
0.0
 40
10.5833333333
 41
0.0
 71
     1
 72
     1
  1
8.661
  7
SLDTEXTSTYLE0
 73
     1
 44
1.0
1001
ACAD
1000
MTEXTBEGIN
1070
    73
1070
     1
1070
    44
1040
1.0
1070
    74
1070
     0
1000
MTEXTEND
  0
ENDBLK
  5
82
330
77
100
AcDbEntity
  8
0
100
AcDbBlockEnd
  0
BLOCK
  5
85
330
84
100
AcDbEntity
  8
0
100
AcDbBlockBegin
  2
_Open30
 70
     0
 10
0.0
 20
0.0
 30
0.0
  3
_Open30
  1

  0
LINE
  5
87
330
84
100
AcDbEntity
  8
0
  6
ByBlock
 62
     0
370
    -2
100
AcDbLine
 10
-1.0
 20
0.267949
 30
0.0
 11
0.0
 21
0.0
 31
0.0
  0
LINE
  5
88
330
84
100
AcDbEntity
  8
0
  6
ByBlock
 62
     0
370
    -2
100
AcDbLine
 10
0.0
 20
0.0
 30
0.0
 11
-1.0
 21
-0.267949
 31
0.0
  0
LINE
  5
89
330
84
100
AcDbEntity
  8
0
  6
ByBlock
 62
     0
370
    -2
100
AcDbLine
 10
0.0
 20
0.0
 30
0.0
 11
-1.0
 21
0.0
 31
0.0
  0
ENDBLK
  5
86
330
84
100
AcDbEntity
  8
0
100
AcDbBlockEnd
  0
BLOCK
  5
A4
330
99
100
AcDbEntity
  8
0
100
AcDbBlockBegin
  2
*D3
 70
     1
 10
0.0
 20
0.0
 30
0.0
  3
*D3
  1

  0
INSERT
  5
A6
330
99
100
AcDbEntity
  8
WAKU
 62
     7
100
AcDbBlockReference
  2
_Open30
 10
155.6399142759
 20
1000.5426743518
 30
28.6
 41
8.0
 42
8.0
 50
90.0
  0
INSERT
  5
A7
330
99
100
AcDbEntity
  8
WAKU
 62
     7
100
AcDbBlockReference
  2
_Open30
 10
155.6399142759
 20
848.5426743517999
 30
28.6
 41
8.0
 42
8.0
 50
270.0
  0
LINE
  5
A8
330
99
100
AcDbEntity
  8
WAKU
 62
     7
100
AcDbLine
 10
127.4333606849
 20
903.3451393661
 30
0.0
 11
141.5366374804
 21
903.3451393661
 31
0.0
  0
LINE
  5
A9
330
99
100
AcDbEntity
  8
WAKU
 62
     7
100
AcDbLine
 10
141.5366374804
 20
903.3451393661
 30
0.0
 11
141.5366374804
 21
909.7032375038001
 31
0.0
  0
LINE
  5
AA
330
99
100
AcDbEntity
  8
WAKU
 62
     7
100
AcDbLine
 10
127.4333606849
 20
903.3451393661
 30
0.0
 11
127.4333606849
 21
909.7032375038001
 31
0.0
  0
LINE
  5
AB
330
99
100
AcDbEntity
  8
WAKU
 62
     7
100
AcDbLine
 10
127.4333606849
 20
947.1350389107
 30
0.0
 11
141.5366374804
 21
947.1350389107
 31
0.0
  0
LINE
  5
AC
330
99
100
AcDbEntity
  8
WAKU
 62
     7
100
AcDbLine
 10
141.5366374804
 20
947.1350389107
 30
0.0
 11
141.5366374804
 21
940.7769407729999
 31
0.0
  0
LINE
  5
AD
330
99
100
AcDbEntity
  8
WAKU
 62
     7
100
AcDbLine
 10
127.4333606849
 20
947.1350389107
 30
0.0
 11
127.4333606849
 21
940.7769407729999
 31
0.0
  0
LINE
  5
AE
330
99
100
AcDbEntity
  8
WAKU
 62
     7
100
AcDbLine
 10
288.1380660146
 20
1000.5426743518
 30
0.0
 11
151.6399142759
 21
1000.5426743518
 31
0.0
  0
LINE
  5
AF
330
99
100
AcDbEntity
  8
WAKU
 62
     7
100
AcDbLine
 10
288.1380660146
 20
848.5426743517999
 30
0.0
 11
151.6399142759
 21
848.5426743517999
 31
0.0
  0
LINE
  5
B0
330
99
100
AcDbEntity
  8
WAKU
 62
     7
100
AcDbLine
 10
155.6399142759
 20
1000.5426743518
 30
0.0
 11
155.6399142759
 21
848.5426743517999
 31
0.0
  0
MTEXT
  5
B1
330
99
100
AcDbEntity
  8
WAKU
 62
     7
100
AcDbMText
 10
143.3247632264
 20
908.3161569838001
 30
0.0
 40
10.5833333333
 41
0.0
 71
     1
 72
     1
  1
%%c
  7
SLDTEXTSTYLE0
 11
-0.000000000000007
 21
1.0
 31
0.0
 73
     1
 44
1.0
1001
ACAD
1000
MTEXTBEGIN
1070
    73
1070
     1
1070
    44
1040
1.0
1070
    74
1070
     0
1000
MTEXTEND
  0
MTEXT
  5
B2
330
99
100
AcDbEntity
  8
WAKU
 62
     7
100
AcDbMText
 10
143.3247632264
 20
921.0091060996999
 30
0.0
 40
10.5833333333
 41
0.0
 71
     1
 72
     1
  1
152
  7
SLDTEXTSTYLE0
 11
-0.000000000000007
 21
1.0
 31
0.0
 73
     1
 44
1.0
1001
ACAD
1000
MTEXTBEGIN
1070
    73
1070
     1
1070
    44
1040
1.0
1070
    74
1070
     0
1000
MTEXTEND
  0
MTEXT
  5
B3
330
99
100
AcDbEntity
  8
WAKU
 62
     7
100
AcDbMText
 10
129.2214864309
 20
909.7032375038001
 30
0.0
 40
10.5833333333
 41
0.0
 71
     1
 72
     1
  1
5.984
  7
SLDTEXTSTYLE0
 11
-0.000000000000007
 21
1.0
 31
0.0
 73
     1
 44
1.0
1001
ACAD
1000
MTEXTBEGIN
1070
    73
1070
     1
1070
    44
1040
1.0
1070
    74
1070
     0
1000
MTEXTEND
  0
ENDBLK
  5
A5
330
99
100
AcDbEntity
  8
0
100
AcDbBlockEnd
  0
BLOCK
  5
B5
330
B4
100
AcDbEntity
  8
0
100
AcDbBlockBegin
  2
SW_CENTERMARKSYMBOL_0
 70
     0
 10
0.0
 20
0.0
 30
0.0
  3
SW_CENTERMARKSYMBOL_0
  1

  0
LINE
  5
B7
330
B4
100
AcDbEntity
  8
0
  6
Continuous
 62
     7
370
     0
100
AcDbLine
 10
0.0
 20
0.0
 30
0.0
 11
2.5
 21
0.0
 31
0.0
  0
LINE
  5
B8
330
B4
100
AcDbEntity
  8
0
  6
Continuous
 62
     7
370
     0
100
AcDbLine
 10
0.0
 20
0.0
 30
0.0
 11
0.0
 21
2.5
 31
0.0
  0
LINE
  5
B9
330
B4
100
AcDbEntity
  8
0
  6
Continuous
 62
     7
370
     0
100
AcDbLine
 10
0.0
 20
0.0
 30
0.0
 11
-2.5
 21
0.0
 31
0.0
  0
LINE
  5
BA
330
B4
100
AcDbEntity
  8
0
  6
Continuous
 62
     7
370
     0
100
AcDbLine
 10
0.0
 20
0.0
 30
0.0
 11
0.0
 21
-2.5
 31
0.0
  0
LINE
  5
BB
330
B4
100
AcDbEntity
  8
0
  6
Continuous
 62
     7
370
     0
100
AcDbLine
 10
5.0
 20
0.0
 30
0.0
 11
123.5842375334
 21
0.0
 31
0.0
  0
LINE
  5
BC
330
B4
100
AcDbEntity
  8
0
  6
Continuous
 62
     7
370
     0
100
AcDbLine
 10
0.0
 20
5.0
 30
0.0
 11
0.0
 21
125.0579534033
 31
0.0
  0
LINE
  5
BD
330
B4
100
AcDbEntity
  8
0
  6
Continuous
 62
     7
370
     0
100
AcDbLine
 10
-5.0
 20
0.0
 30
0.0
 11
-121.7575846571
 21
0.0
 31
0.0
  0
LINE
  5
BE
330
B4
100
AcDbEntity
  8
0
  6
Continuous
 62
     7
370
     0
100
AcDbLine
 10
0.0
 20
-5.0
 30
0.0
 11
0.0
 21
-121.3019717499
 31
0.0
  0
ENDBLK
  5
B6
330
B4
100
AcDbEntity
  8
0
100
AcDbBlockEnd
  0
BLOCK
  5
C1
330
C0
100
AcDbEntity
  8
0
100
AcDbBlockBegin
  2
SW_CENTERMARKSYMBOL_1
 70
     0
 10
0.0
 20
0.0
 30
0.0
  3
SW_CENTERMARKSYMBOL_1
  1

  0
LINE
  5
C3
330
C0
100
AcDbEntity
  8
WAKU
 62
     7
100
AcDbLine
 10
0.0
 20
0.0
 30
0.0
 11
2.486304738399999
 21
0.2613211582
 31
0.0
  0
LINE
  5
C4
330
C0
100
AcDbEntity
  8
WAKU
 62
     7
100
AcDbLine
 10
0.0
 20
0.0
 30
0.0
 11
-0.2613211582
 21
2.486304738399999
 31
0.0
  0
LINE
  5
C5
330
C0
100
AcDbEntity
  8
WAKU
 62
     7
100
AcDbLine
 10
0.0
 20
0.0
 30
0.0
 11
-2.486304738399999
 21
-0.2613211582
 31
0.0
  0
LINE
  5
C6
330
C0
100
AcDbEntity
  8
WAKU
 62
     7
100
AcDbLine
 10
0.0
 20
0.0
 30
0.0
 11
0.2613211582
 21
-2.486304738399999
 31
0.0
  0
LINE
  5
C7
330
C0
100
AcDbEntity
  8
WAKU
 62
     7
100
AcDbLine
 10
4.972609476799999
 20
0.5226423163
 30
0.0
 11
11.2961350022
 21
1.187271630899999
 31
0.0
  0
LINE
  5
C8
330
C0
100
AcDbEntity
  8
WAKU
 62
     7
100
AcDbLine
 10
-0.5226423163
 20
4.972609476799999
 30
0.0
 11
-0.6794350112
 21
6.464392319899999
 31
0.0
  0
LINE
  5
C9
330
C0
100
AcDbEntity
  8
WAKU
 62
     7
100
AcDbLine
 10
-4.972609476799999
 20
-0.5226423163
 30
0.0
 11
-11.3864417673
 21
-1.196763254299999
 31
0.0
  0
LINE
  5
CA
330
C0
100
AcDbEntity
  8
WAKU
 62
     7
100
AcDbLine
 10
0.5226423163
 20
-4.972609476799999
 30
0.0
 11
0.6794350112
 21
-6.464392319899999
 31
0.0
  0
ENDBLK
  5
C2
330
C0
100
AcDbEntity
  8
0
100
AcDbBlockEnd
  0
BLOCK
  5
CD
330
CC
100
AcDbEntity
  8
0
100
AcDbBlockBegin
  2
SW_CENTERMARKSYMBOL_2
 70
     0
 10
0.0
 20
0.0
 30
0.0
  3
SW_CENTERMARKSYMBOL_2
  1

  0
LINE
  5
CF
330
CC
100
AcDbEntity
  8
WAKU
 62
     7
100
AcDbLine
 10
0.0
 20
0.0
 30
0.0
 11
2.486304738399999
 21
0.2613211582
 31
0.0
  0
LINE
  5
D0
330
CC
100
AcDbEntity
  8
WAKU
 62
     7
100
AcDbLine
 10
0.0
 20
0.0
 30
0.0
 11
-0.2613211582
 21
2.486304738399999
 31
0.0
  0
LINE
  5
D1
330
CC
100
AcDbEntity
  8
WAKU
 62
     7
100
AcDbLine
 10
0.0
 20
0.0
 30
0.0
 11
-2.486304738399999
 21
-0.2613211582
 31
0.0
  0
LINE
  5
D2
330
CC
100
AcDbEntity
  8
WAKU
 62
     7
100
AcDbLine
 10
0.0
 20
0.0
 30
0.0
 11
0.2613211582
 21
-2.486304738399999
 31
0.0
  0
LINE
  5
D3
330
CC
100
AcDbEntity
  8
WAKU
 62
     7
100
AcDbLine
 10
4.972609476799999
 20
0.5226423163
 30
0.0
 11
10.8298904691
 21
1.1382673558
 31
0.0
  0
LINE
  5
D4
330
CC
100
AcDbEntity
  8
WAKU
 62
     7
100
AcDbLine
 10
-0.5226423163
 20
4.972609476799999
 30
0.0
 11
-0.6794350112
 21
6.464392319899999
 31
0.0
  0
LINE
  5
D5
330
CC
100
AcDbEntity
  8
WAKU
 62
     7
100
AcDbLine
 10
-4.972609476799999
 20
-0.5226423163
 30
0.0
 11
-10.8506839313
 21
-1.140452836699999
 31
0.0
  0
LINE
  5
D6
330
CC
100
AcDbEntity
  8
WAKU
 62
     7
100
AcDbLine
 10
0.5226423163
 20
-4.972609476799999
 30
0.0
 11
0.6794350112
 21
-6.464392319899999
 31
0.0
  0
ENDBLK
  5
CE
330
CC
100
AcDbEntity
  8
0
100
AcDbBlockEnd
  0
BLOCK
  5
148
330
13D
100
AcDbEntity
  8
0
100
AcDbBlockBegin
  2
*D7
 70
     1
 10
0.0
 20
0.0
 30
0.0
  3
*D7
  1

  0
INSERT
  5
14B
330
13D
100
AcDbEntity
  8
WAKU
 62
     7
100
AcDbBlockReference
  2
_Open30
 10
473.7670895012
 20
999.5426743517999
 30
0.1
 41
8.0
 42
8.0
 50
90.0
  0
INSERT
  5
14C
330
13D
100
AcDbEntity
  8
WAKU
 62
     7
100
AcDbBlockReference
  2
_Open30
 10
473.7670895012
 20
849.5426743517999
 30
0.1
 41
8.0
 42
8.0
 50
270.0
  0
LINE
  5
14D
330
13D
100
AcDbEntity
  8
WAKU
 62
     7
100
AcDbLine
 10
445.5605359101999
 20
903.3451393661
 30
0.0
 11
459.6638127057
 21
903.3451393661
 31
0.0
  0
LINE
  5
14E
330
13D
100
AcDbEntity
  8
WAKU
 62
     7
100
AcDbLine
 10
459.6638127057
 20
903.3451393661
 30
0.0
 11
459.6638127057
 21
909.7032375038001
 31
0.0
  0
LINE
  5
14F
330
13D
100
AcDbEntity
  8
WAKU
 62
     7
100
AcDbLine
 10
445.5605359101999
 20
903.3451393661
 30
0.0
 11
445.5605359101999
 21
909.7032375038001
 31
0.0
  0
LINE
  5
150
330
13D
100
AcDbEntity
  8
WAKU
 62
     7
100
AcDbLine
 10
445.5605359101999
 20
947.1350389107
 30
0.0
 11
459.6638127057
 21
947.1350389107
 31
0.0
  0
LINE
  5
151
330
13D
100
AcDbEntity
  8
WAKU
 62
     7
100
AcDbLine
 10
459.6638127057
 20
947.1350389107
 30
0.0
 11
459.6638127057
 21
940.7769407729999
 31
0.0
  0
LINE
  5
152
330
13D
100
AcDbEntity
  8
WAKU
 62
     7
100
AcDbLine
 10
445.5605359101999
 20
947.1350389107
 30
0.0
 11
445.5605359101999
 21
940.7769407729999
 31
0.0
  0
LINE
  5
153
330
13D
100
AcDbEntity
  8
WAKU
 62
     7
100
AcDbLine
 10
549.4904802843
 20
999.5426743517999
 30
0.0
 11
469.7670895012
 21
999.5426743517999
 31
0.0
  0
LINE
  5
154
330
13D
100
AcDbEntity
  8
WAKU
 62
     7
100
AcDbLine
 10
553.9947881407999
 20
849.5426743517999
 30
0.0
 11
469.7670895012
 21
849.5426743517999
 31
0.0
  0
LINE
  5
155
330
13D
100
AcDbEntity
  8
WAKU
 62
     7
100
AcDbLine
 10
473.7670895012
 20
999.5426743517999
 30
0.0
 11
473.7670895012
 21
849.5426743517999
 31
0.0
  0
MTEXT
  5
156
330
13D
100
AcDbEntity
  8
WAKU
 62
     7
100
AcDbMText
 10
461.4519384517
 20
908.3161569838001
 30
0.0
 40
10.5833333333
 41
0.0
 71
     1
 72
     1
  1
%%c
  7
SLDTEXTSTYLE0
 11
-0.000000000000007
 21
1.0
 31
0.0
 73
     1
 44
1.0
1001
ACAD
1000
MTEXTBEGIN
1070
    73
1070
     1
1070
    44
1040
1.0
1070
    74
1070
     0
1000
MTEXTEND
  0
MTEXT
  5
157
330
13D
100
AcDbEntity
  8
WAKU
 62
     7
100
AcDbMText
 10
461.4519384517
 20
921.0091060996999
 30
0.0
 40
10.5833333333
 41
0.0
 71
     1
 72
     1
  1
150
  7
SLDTEXTSTYLE0
 11
-0.000000000000007
 21
1.0
 31
0.0
 73
     1
 44
1.0
1001
ACAD
1000
MTEXTBEGIN
1070
    73
1070
     1
1070
    44
1040
1.0
1070
    74
1070
     0
1000
MTEXTEND
  0
MTEXT
  5
158
330
13D
100
AcDbEntity
  8
WAKU
 62
     7
100
AcDbMText
 10
447.3486616561999
 20
909.7032375038001
 30
0.0
 40
10.5833333333
 41
0.0
 71
     1
 72
     1
  1
5.906
  7
SLDTEXTSTYLE0
 11
-0.000000000000007
 21
1.0
 31
0.0
 73
     1
 44
1.0
1001
ACAD
1000
MTEXTBEGIN
1070
    73
1070
     1
1070
    44
1040
1.0
1070
    74
1070
     0
1000
MTEXTEND
  0
ENDBLK
  5
149
330
13D
100
AcDbEntity
  8
0
100
AcDbBlockEnd
  0
BLOCK
  5
164
330
15A
100
AcDbEntity
  8
0
100
AcDbBlockBegin
  2
*D8
 70
     1
 10
0.0
 20
0.0
 30
0.0
  3
*D8
  1

  0
INSERT
  5
166
330
15A
100
AcDbEntity
  8
WAKU
 62
     7
100
AcDbBlockReference
  2
_Open30
 10
569.2169796708999
 20
784.7210420798
 30
0.1
 41
8.0
 42
8.0
 50
180.0
  0
INSERT
  5
167
330
15A
100
AcDbEntity
  8
WAKU
 62
     7
100
AcDbBlockReference
  2
_Open30
 10
707.2169796708999
 20
784.7210420798
 30
0.1
 41
8.0
 42
8.0
  0
LINE
  5
168
330
15A
100
AcDbEntity
  8
WAKU
 62
     7
100
AcDbLine
 10
616.3220298985
 20
812.9275956707999
 30
0.0
 11
616.3220298985
 21
798.8243188753
 31
0.0
  0
LINE
  5
169
330
15A
100
AcDbEntity
  8
WAKU
 62
     7
100
AcDbLine
 10
616.3220298985
 20
798.8243188753
 30
0.0
 11
622.6801280362999
 21
798.8243188753
 31
0.0
  0
LINE
  5
16A
330
15A
100
AcDbEntity
  8
WAKU
 62
     7
100
AcDbLine
 10
616.3220298985
 20
812.9275956707999
 30
0.0
 11
622.6801280362999
 21
812.9275956707999
 31
0.0
  0
LINE
  5
16B
330
15A
100
AcDbEntity
  8
WAKU
 62
     7
100
AcDbLine
 10
660.1119294432
 20
812.9275956707999
 30
0.0
 11
660.1119294432
 21
798.8243188753
 31
0.0
  0
LINE
  5
16C
330
15A
100
AcDbEntity
  8
WAKU
 62
     7
100
AcDbLine
 10
660.1119294432
 20
798.8243188753
 30
0.0
 11
653.7538313055001
 21
798.8243188753
 31
0.0
  0
LINE
  5
16D
330
15A
100
AcDbEntity
  8
WAKU
 62
     7
100
AcDbLine
 10
660.1119294432
 20
812.9275956707999
 30
0.0
 11
653.7538313055001
 21
812.9275956707999
 31
0.0
  0
LINE
  5
16E
330
15A
100
AcDbEntity
  8
WAKU
 62
     7
100
AcDbLine
 10
569.2169796708999
 20
813.6426743517999
 30
0.0
 11
569.2169796708999
 21
780.7210420798
 31
0.0
  0
LINE
  5
16F
330
15A
100
AcDbEntity
  8
WAKU
 62
     7
100
AcDbLine
 10
707.2169796708999
 20
835.3822623644001
 30
0.0
 11
707.2169796708999
 21
780.7210420798
 31
0.0
  0
LINE
  5
170
330
15A
100
AcDbEntity
  8
WAKU
 62
     7
100
AcDbLine
 10
569.2169796708999
 20
784.7210420798
 30
0.0
 11
707.2169796708999
 21
784.7210420798
 31
0.0
  0
MTEXT
  5
171
330
15A
100
AcDbEntity
  8
WAKU
 62
     7
100
AcDbMText
 10
627.6395220741999
 20
797.0361931292999
 30
0.0
 40
10.5833333333
 41
0.0
 71
     1
 72
     1
  1
138
  7
SLDTEXTSTYLE0
 73
     1
 44
1.0
1001
ACAD
1000
MTEXTBEGIN
1070
    73
1070
     1
1070
    44
1040
1.0
1070
    74
1070
     0
1000
MTEXTEND
  0
MTEXT
  5
172
330
15A
100
AcDbEntity
  8
WAKU
 62
     7
100
AcDbMText
 10
622.6801280362999
 20
811.1394699248
 30
0.0
 40
10.5833333333
 41
0.0
 71
     1
 72
     1
  1
5.433
  7
SLDTEXTSTYLE0
 73
     1
 44
1.0
1001
ACAD
1000
MTEXTBEGIN
1070
    73
1070
     1
1070
    44
1040
1.0
1070
    74
1070
     0
1000
MTEXTEND
  0
ENDBLK
  5
165
330
15A
100
AcDbEntity
  8
0
100
AcDbBlockEnd
  0
BLOCK
  5
17F
330
174
100
AcDbEntity
  8
0
100
AcDbBlockBegin
  2
*D9
 70
     1
 10
0.0
 20
0.0
 30
0.0
  3
*D9
  1

  0
INSERT
  5
181
330
174
100
AcDbEntity
  8
WAKU
 62
     7
100
AcDbBlockReference
  2
_Open30
 10
767.7631364955999
 20
833.1112760799999
 30
0.1
 41
8.0
 42
8.0
 50
270.0
  0
INSERT
  5
182
330
174
100
AcDbEntity
  8
WAKU
 62
     7
100
AcDbBlockReference
  2
_Open30
 10
767.7631364955999
 20
1015.9740726236
 30
0.1
 41
8.0
 42
8.0
 50
90.0
  0
LINE
  5
183
330
174
100
AcDbEntity
  8
WAKU
 62
     7
100
AcDbLine
 10
739.5565829047
 20
902.6477245795
 30
0.0
 11
753.6598597000999
 21
902.6477245795
 31
0.0
  0
LINE
  5
184
330
174
100
AcDbEntity
  8
WAKU
 62
     7
100
AcDbLine
 10
753.6598597000999
 20
902.6477245795
 30
0.0
 11
753.6598597000999
 21
909.0058227171999
 31
0.0
  0
LINE
  5
185
330
174
100
AcDbEntity
  8
WAKU
 62
     7
100
AcDbLine
 10
739.5565829047
 20
902.6477245795
 30
0.0
 11
739.5565829047
 21
909.0058227171999
 31
0.0
  0
LINE
  5
186
330
174
100
AcDbEntity
  8
WAKU
 62
     7
100
AcDbLine
 10
739.5565829047
 20
946.4376241242
 30
0.0
 11
753.6598597000999
 21
946.4376241242
 31
0.0
  0
LINE
  5
187
330
174
100
AcDbEntity
  8
WAKU
 62
     7
100
AcDbLine
 10
753.6598597000999
 20
946.4376241242
 30
0.0
 11
753.6598597000999
 21
940.0795259863999
 31
0.0
  0
LINE
  5
188
330
174
100
AcDbEntity
  8
WAKU
 62
     7
100
AcDbLine
 10
739.5565829047
 20
946.4376241242
 30
0.0
 11
739.5565829047
 21
940.0795259863999
 31
0.0
  0
LINE
  5
189
330
174
100
AcDbEntity
  8
WAKU
 62
     7
100
AcDbLine
 10
577.1471700451
 20
833.1112760799999
 30
0.0
 11
771.7631364955999
 21
833.1112760799999
 31
0.0
  0
LINE
  5
18A
330
174
100
AcDbEntity
  8
WAKU
 62
     7
100
AcDbLine
 10
577.1471700451
 20
1015.9740726236
 30
0.0
 11
771.7631364955999
 21
1015.9740726236
 31
0.0
  0
LINE
  5
18B
330
174
100
AcDbEntity
  8
WAKU
 62
     7
100
AcDbLine
 10
767.7631364955999
 20
833.1112760799999
 30
0.0
 11
767.7631364955999
 21
1015.9740726236
 31
0.0
  0
MTEXT
  5
18C
330
174
100
AcDbEntity
  8
WAKU
 62
     7
100
AcDbMText
 10
755.4479854461999
 20
913.9652167552
 30
0.0
 40
10.5833333333
 41
0.0
 71
     1
 72
     1
  1
183
  7
SLDTEXTSTYLE0
 11
0.0000000000000001
 21
1.0
 31
0.0
 73
     1
 44
1.0
1001
ACAD
1000
MTEXTBEGIN
1070
    73
1070
     1
1070
    44
1040
1.0
1070
    74
1070
     0
1000
MTEXTEND
  0
MTEXT
  5
18D
330
174
100
AcDbEntity
  8
WAKU
 62
     7
100
AcDbMText
 10
741.3447086507001
 20
909.0058227171999
 30
0.0
 40
10.5833333333
 41
0.0
 71
     1
 72
     1
  1
7.199
  7
SLDTEXTSTYLE0
 11
0.0000000000000001
 21
1.0
 31
0.0
 73
     1
 44
1.0
1001
ACAD
1000
MTEXTBEGIN
1070
    73
1070
     1
1070
    44
1040
1.0
1070
    74
1070
     0
1000
MTEXTEND
  0
ENDBLK
  5
180
330
174
100
AcDbEntity
  8
0
100
AcDbBlockEnd
  0
BLOCK
  5
197
330
18F
100
AcDbEntity
  8
0
100
AcDbBlockBegin
  2
*D10
 70
     1
 10
0.0
 20
0.0
 30
0.0
  3
*D10
  1

  0
INSERT
  5
19B
330
18F
100
AcDbEntity
  8
WAKU
 62
     7
100
AcDbBlockReference
  2
_Open30
 10
528.2165693847999
 20
990.874953672
 30
0.1
 41
8.0
 42
8.0
 50
117.8184936766
  0
LINE
  5
19C
330
18F
100
AcDbEntity
  8
WAKU
 62
     7
100
AcDbLine
 10
452.3075480553
 20
1051.8677580657
 30
0.0
 11
452.3075480553
 21
1037.7644812702
 31
0.0
  0
LINE
  5
19D
330
18F
100
AcDbEntity
  8
WAKU
 62
     7
100
AcDbLine
 10
452.3075480553
 20
1037.7644812702
 30
0.0
 11
458.6656461930999
 21
1037.7644812702
 31
0.0
  0
LINE
  5
19E
330
18F
100
AcDbEntity
  8
WAKU
 62
     7
100
AcDbLine
 10
452.3075480553
 20
1051.8677580657
 30
0.0
 11
458.6656461930999
 21
1051.8677580657
 31
0.0
  0
LINE
  5
19F
330
18F
100
AcDbEntity
  8
WAKU
 62
     7
100
AcDbLine
 10
496.0974475999999
 20
1051.8677580657
 30
0.0
 11
496.0974475999999
 21
1037.7644812702
 31
0.0
  0
LINE
  5
1A0
330
18F
100
AcDbEntity
  8
WAKU
 62
     7
100
AcDbLine
 10
496.0974475999999
 20
1037.7644812702
 30
0.0
 11
489.7393494623
 21
1037.7644812702
 31
0.0
  0
LINE
  5
1A1
330
18F
100
AcDbEntity
  8
WAKU
 62
     7
100
AcDbLine
 10
496.0974475999999
 20
1051.8677580657
 30
0.0
 11
489.7393494623
 21
1051.8677580657
 31
0.0
  0
LINE
  5
1A2
330
18F
100
AcDbEntity
  8
WAKU
 62
     7
100
AcDbLine
 10
528.2165693847999
 20
990.874953672
 30
0.0
 11
510.9168136458999
 21
1023.6612044748
 31
0.0
  0
LINE
  5
1A3
330
18F
100
AcDbEntity
  8
WAKU
 62
     7
100
AcDbLine
 10
563.2169796708999
 20
924.5426743517999
 30
0.0
 11
528.2165693847999
 21
990.874953672
 31
0.0
  0
LINE
  5
1A4
330
18F
100
AcDbEntity
  8
WAKU
 62
     7
100
AcDbLine
 10
510.9168136458999
 20
1023.6612044748
 30
0.0
 11
443.8381820094
 21
1023.6612044748
 31
0.0
  0
MTEXT
  5
1A5
330
18F
100
AcDbEntity
  8
WAKU
 62
     7
100
AcDbMText
 10
462.741648168
 20
1035.9763555242
 30
0.0
 40
10.5833333333
 41
0.0
 71
     1
 72
     1
  1
R
  7
SLDTEXTSTYLE0
 73
     1
 44
1.0
1001
ACAD
1000
MTEXTBEGIN
1070
    73
1070
     1
1070
    44
1040
1.0
1070
    74
1070
     0
1000
MTEXTEND
  0
MTEXT
  5
1A6
330
18F
100
AcDbEntity
  8
WAKU
 62
     7
100
AcDbMText
 10
471.5600706917999
 20
1035.9763555242
 30
0.0
 40
10.5833333333
 41
0.0
 71
     1
 72
     1
  1
75
  7
SLDTEXTSTYLE0
 73
     1
 44
1.0
1001
ACAD
1000
MTEXTBEGIN
1070
    73
1070
     1
1070
    44
1040
1.0
1070
    74
1070
     0
1000
MTEXTEND
  0
MTEXT
  5
1A7
330
18F
100
AcDbEntity
  8
WAKU
 62
     7
100
AcDbMText
 10
458.6656461930999
 20
1050.0796323197
 30
0.0
 40
10.5833333333
 41
0.0
 71
     1
 72
     1
  1
2.953
  7
SLDTEXTSTYLE0
 73
     1
 44
1.0
1001
ACAD
1000
MTEXTBEGIN
1070
    73
1070
     1
1070
    44
1040
1.0
1070
    74
1070
     0
1000
MTEXTEND
  0
ENDBLK
  5
198
330
18F
100
AcDbEntity
  8
0
100
AcDbBlockEnd
  0
BLOCK
  5
1B3
330
1A9
100
AcDbEntity
  8
0
100
AcDbBlockBegin
  2
*D11
 70
     1
 10
0.0
 20
0.0
 30
0.0
  3
*D11
  1

  0
INSERT
  5
1B5
330
1A9
100
AcDbEntity
  8
WAKU
 62
     7
100
AcDbBlockReference
  2
_Open30
 10
488.2169796708999
 20
742.4367473379
 30
0.1
 41
8.0
 42
8.0
 50
180.0
  0
INSERT
  5
1B6
330
1A9
100
AcDbEntity
  8
WAKU
 62
     7
100
AcDbBlockReference
  2
_Open30
 10
707.2169796708999
 20
742.4367473379
 30
0.1
 41
8.0
 42
8.0
  0
LINE
  5
1B7
330
1A9
100
AcDbEntity
  8
WAKU
 62
     7
100
AcDbLine
 10
575.8220298984999
 20
770.6433009288
 30
0.0
 11
575.8220298984999
 21
756.5400241333
 31
0.0
  0
LINE
  5
1B8
330
1A9
100
AcDbEntity
  8
WAKU
 62
     7
100
AcDbLine
 10
575.8220298984999
 20
756.5400241333
 30
0.0
 11
582.1801280362999
 21
756.5400241333
 31
0.0
  0
LINE
  5
1B9
330
1A9
100
AcDbEntity
  8
WAKU
 62
     7
100
AcDbLine
 10
575.8220298984999
 20
770.6433009288
 30
0.0
 11
582.1801280362999
 21
770.6433009288
 31
0.0
  0
LINE
  5
1BA
330
1A9
100
AcDbEntity
  8
WAKU
 62
     7
100
AcDbLine
 10
619.6119294432
 20
770.6433009288
 30
0.0
 11
619.6119294432
 21
756.5400241333
 31
0.0
  0
LINE
  5
1BB
330
1A9
100
AcDbEntity
  8
WAKU
 62
     7
100
AcDbLine
 10
619.6119294432
 20
756.5400241333
 30
0.0
 11
613.2538313055
 21
756.5400241333
 31
0.0
  0
LINE
  5
1BC
330
1A9
100
AcDbEntity
  8
WAKU
 62
     7
100
AcDbLine
 10
619.6119294432
 20
770.6433009288
 30
0.0
 11
613.2538313055
 21
770.6433009288
 31
0.0
  0
LINE
  5
1BD
330
1A9
100
AcDbEntity
  8
WAKU
 62
     7
100
AcDbLine
 10
488.2169796708999
 20
920.5426743518
 30
0.0
 11
488.2169796708999
 21
738.4367473379
 31
0.0
  0
LINE
  5
1BE
330
1A9
100
AcDbEntity
  8
WAKU
 62
     7
100
AcDbLine
 10
707.2169796708999
 20
835.3822623644001
 30
0.0
 11
707.2169796708999
 21
738.4367473379
 31
0.0
  0
LINE
  5
1BF
330
1A9
100
AcDbEntity
  8
WAKU
 62
     7
100
AcDbLine
 10
488.2169796708999
 20
742.4367473379
 30
0.0
 11
707.2169796708999
 21
742.4367473379
 31
0.0
  0
MTEXT
  5
1C0
330
1A9
100
AcDbEntity
  8
WAKU
 62
     7
100
AcDbMText
 10
587.1395220741999
 20
754.7518983873
 30
0.0
 40
10.5833333333
 41
0.0
 71
     1
 72
     1
  1
219
  7
SLDTEXTSTYLE0
 73
     1
 44
1.0
1001
ACAD
1000
MTEXTBEGIN
1070
    73
1070
     1
1070
    44
1040
1.0
1070
    74
1070
     0
1000
MTEXTEND
  0
MTEXT
  5
1C1
330
1A9
100
AcDbEntity
  8
WAKU
 62
     7
100
AcDbMText
 10
582.1801280362999
 20
768.8551751827999
 30
0.0
 40
10.5833333333
 41
0.0
 71
     1
 72
     1
  1
8.622
  7
SLDTEXTSTYLE0
 73
     1
 44
1.0
1001
ACAD
1000
MTEXTBEGIN
1070
    73
1070
     1
1070
    44
1040
1.0
1070
    74
1070
     0
1000
MTEXTEND
  0
ENDBLK
  5
1B4
330
1A9
100
AcDbEntity
  8
0
100
AcDbBlockEnd
  0
BLOCK
  5
251
330
247
100
AcDbEntity
  8
0
100
AcDbBlockBegin
  2
*D12
 70
     1
 10
0.0
 20
0.0
 30
0.0
  3
*D12
  1

  0
INSERT
  5
253
330
247
100
AcDbEntity
  8
WAKU
 62
     7
100
AcDbBlockReference
  2
_Open30
 10
372.0694642864
 20
453.8862176341
 30
-28.4
 41
8.0
 42
8.0
 50
360.0
  0
INSERT
  5
254
330
247
100
AcDbEntity
  8
WAKU
 62
     7
100
AcDbBlockReference
  2
_Open30
 10
212.2066677427
 20
453.8862176341
 30
-28.4
 41
8.0
 42
8.0
 50
180.0
  0
LINE
  5
255
330
247
100
AcDbEntity
  8
WAKU
 62
     7
100
AcDbLine
 10
270.2431162422
 20
482.0927712251
 30
0.0
 11
270.2431162422
 21
467.9894944295999
 31
0.0
  0
LINE
  5
256
330
247
100
AcDbEntity
  8
WAKU
 62
     7
100
AcDbLine
 10
270.2431162422
 20
467.9894944295999
 30
0.0
 11
276.60121438
 21
467.9894944295999
 31
0.0
  0
LINE
  5
257
330
247
100
AcDbEntity
  8
WAKU
 62
     7
100
AcDbLine
 10
270.2431162422
 20
482.0927712251
 30
0.0
 11
276.60121438
 21
482.0927712251
 31
0.0
  0
LINE
  5
258
330
247
100
AcDbEntity
  8
WAKU
 62
     7
100
AcDbLine
 10
314.0330157869
 20
482.0927712251
 30
0.0
 11
314.0330157869
 21
467.9894944295999
 31
0.0
  0
LINE
  5
259
330
247
100
AcDbEntity
  8
WAKU
 62
     7
100
AcDbLine
 10
314.0330157869
 20
467.9894944295999
 30
0.0
 11
307.6749176492
 21
467.9894944295999
 31
0.0
  0
LINE
  5
25A
330
247
100
AcDbEntity
  8
WAKU
 62
     7
100
AcDbLine
 10
314.0330157869
 20
482.0927712251
 30
0.0
 11
307.6749176492
 21
482.0927712251
 31
0.0
  0
LINE
  5
25B
330
247
100
AcDbEntity
  8
WAKU
 62
     7
100
AcDbLine
 10
372.0694642864
 20
572.1049863644999
 30
0.0
 11
372.0694642864
 21
449.8862176341
 31
0.0
  0
LINE
  5
25C
330
247
100
AcDbEntity
  8
WAKU
 62
     7
100
AcDbLine
 10
212.2066677427
 20
572.1049863644999
 30
0.0
 11
212.2066677427
 21
449.8862176341
 31
0.0
  0
LINE
  5
25D
330
247
100
AcDbEntity
  8
WAKU
 62
     7
100
AcDbLine
 10
372.0694642864
 20
453.8862176341
 30
0.0
 11
212.2066677427
 21
453.8862176341
 31
0.0
  0
MTEXT
  5
25E
330
247
100
AcDbEntity
  8
WAKU
 62
     7
100
AcDbMText
 10
281.560608418
 20
466.2013686835999
 30
0.0
 40
10.5833333333
 41
0.0
 71
     1
 72
     1
  1
160
  7
SLDTEXTSTYLE0
 73
     1
 44
1.0
1001
ACAD
1000
MTEXTBEGIN
1070
    73
1070
     1
1070
    44
1040
1.0
1070
    74
1070
     0
1000
MTEXTEND
  0
MTEXT
  5
25F
330
247
100
AcDbEntity
  8
WAKU
 62
     7
100
AcDbMText
 10
276.60121438
 20
480.3046454791
 30
0.0
 40
10.5833333333
 41
0.0
 71
     1
 72
     1
  1
6.294
  7
SLDTEXTSTYLE0
 73
     1
 44
1.0
1001
ACAD
1000
MTEXTBEGIN
1070
    73
1070
     1
1070
    44
1040
1.0
1070
    74
1070
     0
1000
MTEXTEND
  0
ENDBLK
  5
252
330
247
100
AcDbEntity
  8
0
100
AcDbBlockEnd
  0
BLOCK
  5
261
330
260
100
AcDbEntity
  8
0
100
AcDbBlockBegin
  2
SW_CENTERMARKSYMBOL_3
 70
     0
 10
0.0
 20
0.0
 30
0.0
  3
SW_CENTERMARKSYMBOL_3
  1

  0
LINE
  5
263
330
260
100
AcDbEntity
  8
0
  6
Continuous
 62
     7
370
     0
100
AcDbLine
 10
0.0
 20
0.0
 30
0.0
 11
0.0
 21
-2.5
 31
0.0
  0
LINE
  5
264
330
260
100
AcDbEntity
  8
0
  6
Continuous
 62
     7
370
     0
100
AcDbLine
 10
0.0
 20
0.0
 30
0.0
 11
2.5
 21
0.0
 31
0.0
  0
LINE
  5
265
330
260
100
AcDbEntity
  8
0
  6
Continuous
 62
     7
370
     0
100
AcDbLine
 10
0.0
 20
0.0
 30
0.0
 11
0.0
 21
2.5
 31
0.0
  0
LINE
  5
266
330
260
100
AcDbEntity
  8
0
  6
Continuous
 62
     7
370
     0
100
AcDbLine
 10
0.0
 20
0.0
 30
0.0
 11
-2.5
 21
0.0
 31
0.0
  0
LINE
  5
267
330
260
100
AcDbEntity
  8
0
  6
Continuous
 62
     7
370
     0
100
AcDbLine
 10
0.0
 20
-5.0
 30
0.0
 11
0.0
 21
-132.9365417129
 31
0.0
  0
LINE
  5
268
330
260
100
AcDbEntity
  8
0
  6
Continuous
 62
     7
370
     0
100
AcDbLine
 10
5.0
 20
0.0
 30
0.0
 11
131.5385492125
 21
0.0
 31
0.0
  0
LINE
  5
269
330
260
100
AcDbEntity
  8
0
  6
Continuous
 62
     7
370
     0
100
AcDbLine
 10
0.0
 20
5.0
 30
0.0
 11
0.0
 21
126.643334343
 31
0.0
  0
LINE
  5
26A
330
260
100
AcDbEntity
  8
0
  6
Continuous
 62
     7
370
     0
100
AcDbLine
 10
-5.0
 20
0.0
 30
0.0
 11
-131.4707681704
 21
0.0
 31
0.0
  0
ENDBLK
  5
262
330
260
100
AcDbEntity
  8
0
100
AcDbBlockEnd
  0
BLOCK
  5
26D
330
26C
100
AcDbEntity
  8
0
100
AcDbBlockBegin
  2
SW_CENTERMARKSYMBOL_4
 70
     0
 10
0.0
 20
0.0
 30
0.0
  3
SW_CENTERMARKSYMBOL_4
  1

  0
LINE
  5
26F
330
26C
100
AcDbEntity
  8
WAKU
 62
     7
100
AcDbLine
 10
0.0
 20
0.0
 30
0.0
 11
0.0
 21
-2.5
 31
0.0
  0
LINE
  5
270
330
26C
100
AcDbEntity
  8
WAKU
 62
     7
100
AcDbLine
 10
0.0
 20
0.0
 30
0.0
 11
2.5
 21
0.0
 31
0.0
  0
LINE
  5
271
330
26C
100
AcDbEntity
  8
WAKU
 62
     7
100
AcDbLine
 10
0.0
 20
0.0
 30
0.0
 11
0.0
 21
2.5
 31
0.0
  0
LINE
  5
272
330
26C
100
AcDbEntity
  8
WAKU
 62
     7
100
AcDbLine
 10
0.0
 20
0.0
 30
0.0
 11
-2.5
 21
0.0
 31
0.0
  0
LINE
  5
273
330
26C
100
AcDbEntity
  8
WAKU
 62
     7
100
AcDbLine
 10
0.0
 20
-5.0
 30
0.0
 11
0.0
 21
-8.0
 31
0.0
  0
LINE
  5
274
330
26C
100
AcDbEntity
  8
WAKU
 62
     7
100
AcDbLine
 10
5.0
 20
0.0
 30
0.0
 11
8.0
 21
0.0
 31
0.0
  0
LINE
  5
275
330
26C
100
AcDbEntity
  8
WAKU
 62
     7
100
AcDbLine
 10
0.0
 20
5.0
 30
0.0
 11
0.0
 21
8.0
 31
0.0
  0
LINE
  5
276
330
26C
100
AcDbEntity
  8
WAKU
 62
     7
100
AcDbLine
 10
-5.0
 20
0.0
 30
0.0
 11
-8.0
 21
0.0
 31
0.0
  0
ENDBLK
  5
26E
330
26C
100
AcDbEntity
  8
0
100
AcDbBlockEnd
  0
BLOCK
  5
279
330
278
100
AcDbEntity
  8
0
100
AcDbBlockBegin
  2
SW_CENTERMARKSYMBOL_5
 70
     0
 10
0.0
 20
0.0
 30
0.0
  3
SW_CENTERMARKSYMBOL_5
  1

  0
LINE
  5
27B
330
278
100
AcDbEntity
  8
WAKU
 62
     7
100
AcDbLine
 10
0.0
 20
0.0
 30
0.0
 11
0.0
 21
-2.5
 31
0.0
  0
LINE
  5
27C
330
278
100
AcDbEntity
  8
WAKU
 62
     7
100
AcDbLine
 10
0.0
 20
0.0
 30
0.0
 11
2.5
 21
0.0
 31
0.0
  0
LINE
  5
27D
330
278
100
AcDbEntity
  8
WAKU
 62
     7
100
AcDbLine
 10
0.0
 20
0.0
 30
0.0
 11
0.0
 21
2.5
 31
0.0
  0
LINE
  5
27E
330
278
100
AcDbEntity
  8
WAKU
 62
     7
100
AcDbLine
 10
0.0
 20
0.0
 30
0.0
 11
-2.5
 21
0.0
 31
0.0
  0
LINE
  5
27F
330
278
100
AcDbEntity
  8
WAKU
 62
     7
100
AcDbLine
 10
0.0
 20
-5.0
 30
0.0
 11
0.0
 21
-8.0
 31
0.0
  0
LINE
  5
280
330
278
100
AcDbEntity
  8
WAKU
 62
     7
100
AcDbLine
 10
5.0
 20
0.0
 30
0.0
 11
8.0
 21
0.0
 31
0.0
  0
LINE
  5
281
330
278
100
AcDbEntity
  8
WAKU
 62
     7
100
AcDbLine
 10
0.0
 20
5.0
 30
0.0
 11
0.0
 21
8.0
 31
0.0
  0
LINE
  5
282
330
278
100
AcDbEntity
  8
WAKU
 62
     7
100
AcDbLine
 10
-5.0
 20
0.0
 30
0.0
 11
-8.0
 21
0.0
 31
0.0
  0
ENDBLK
  5
27A
330
278
100
AcDbEntity
  8
0
100
AcDbBlockEnd
  0
BLOCK
  5
285
330
284
100
AcDbEntity
  8
0
100
AcDbBlockBegin
  2
SW_CENTERMARKSYMBOL_6
 70
     0
 10
0.0
 20
0.0
 30
0.0
  3
SW_CENTERMARKSYMBOL_6
  1

  0
LINE
  5
287
330
284
100
AcDbEntity
  8
WAKU
 62
     7
100
AcDbLine
 10
0.0
 20
0.0
 30
0.0
 11
0.0
 21
-2.5
 31
0.0
  0
LINE
  5
288
330
284
100
AcDbEntity
  8
WAKU
 62
     7
100
AcDbLine
 10
0.0
 20
0.0
 30
0.0
 11
2.5
 21
0.0
 31
0.0
  0
LINE
  5
289
330
284
100
AcDbEntity
  8
WAKU
 62
     7
100
AcDbLine
 10
0.0
 20
0.0
 30
0.0
 11
0.0
 21
2.5
 31
0.0
  0
LINE
  5
28A
330
284
100
AcDbEntity
  8
WAKU
 62
     7
100
AcDbLine
 10
0.0
 20
0.0
 30
0.0
 11
-2.5
 21
0.0
 31
0.0
  0
LINE
  5
28B
330
284
100
AcDbEntity
  8
WAKU
 62
     7
100
AcDbLine
 10
0.0
 20
-5.0
 30
0.0
 11
0.0
 21
-6.5
 31
0.0
  0
LINE
  5
28C
330
284
100
AcDbEntity
  8
WAKU
 62
     7
100
AcDbLine
 10
5.0
 20
0.0
 30
0.0
 11
6.5
 21
0.0
 31
0.0
  0
LINE
  5
28D
330
284
100
AcDbEntity
  8
WAKU
 62
     7
100
AcDbLine
 10
0.0
 20
5.0
 30
0.0
 11
0.0
 21
6.5
 31
0.0
  0
LINE
  5
28E
330
284
100
AcDbEntity
  8
WAKU
 62
     7
100
AcDbLine
 10
-5.0
 20
0.0
 30
0.0
 11
-6.5
 21
0.0
 31
0.0
  0
ENDBLK
  5
286
330
284
100
AcDbEntity
  8
0
100
AcDbBlockEnd
  0
BLOCK
  5
291
330
290
100
AcDbEntity
  8
0
100
AcDbBlockBegin
  2
SW_CENTERMARKSYMBOL_7
 70
     0
 10
0.0
 20
0.0
 30
0.0
  3
SW_CENTERMARKSYMBOL_7
  1

  0
LINE
  5
293
330
290
100
AcDbEntity
  8
WAKU
 62
     7
100
AcDbLine
 10
0.0
 20
0.0
 30
0.0
 11
0.0
 21
-2.5
 31
0.0
  0
LINE
  5
294
330
290
100
AcDbEntity
  8
WAKU
 62
     7
100
AcDbLine
 10
0.0
 20
0.0
 30
0.0
 11
2.5
 21
0.0
 31
0.0
  0
LINE
  5
295
330
290
100
AcDbEntity
  8
WAKU
 62
     7
100
AcDbLine
 10
0.0
 20
0.0
 30
0.0
 11
0.0
 21
2.5
 31
0.0
  0
LINE
  5
296
330
290
100
AcDbEntity
  8
WAKU
 62
     7
100
AcDbLine
 10
0.0
 20
0.0
 30
0.0
 11
-2.5
 21
0.0
 31
0.0
  0
LINE
  5
297
330
290
100
AcDbEntity
  8
WAKU
 62
     7
100
AcDbLine
 10
0.0
 20
-5.0
 30
0.0
 11
0.0
 21
-6.5
 31
0.0
  0
LINE
  5
298
330
290
100
AcDbEntity
  8
WAKU
 62
     7
100
AcDbLine
 10
5.0
 20
0.0
 30
0.0
 11
6.5
 21
0.0
 31
0.0
  0
LINE
  5
299
330
290
100
AcDbEntity
  8
WAKU
 62
     7
100
AcDbLine
 10
0.0
 20
5.0
 30
0.0
 11
0.0
 21
6.5
 31
0.0
  0
LINE
  5
29A
330
290
100
AcDbEntity
  8
WAKU
 62
     7
100
AcDbLine
 10
-5.0
 20
0.0
 30
0.0
 11
-6.5
 21
0.0
 31
0.0
  0
ENDBLK
  5
292
330
290
100
AcDbEntity
  8
0
100
AcDbBlockEnd
  0
BLOCK
  5
29D
330
29C
100
AcDbEntity
  8
0
100
AcDbBlockBegin
  2
SW_CENTERMARKSYMBOL_8
 70
     0
 10
0.0
 20
0.0
 30
0.0
  3
SW_CENTERMARKSYMBOL_8
  1

  0
LINE
  5
29F
330
29C
100
AcDbEntity
  8
WAKU
 62
     7
100
AcDbLine
 10
0.0
 20
0.0
 30
0.0
 11
0.0
 21
-2.5
 31
0.0
  0
LINE
  5
2A0
330
29C
100
AcDbEntity
  8
WAKU
 62
     7
100
AcDbLine
 10
0.0
 20
0.0
 30
0.0
 11
2.5
 21
0.0
 31
0.0
  0
LINE
  5
2A1
330
29C
100
AcDbEntity
  8
WAKU
 62
     7
100
AcDbLine
 10
0.0
 20
0.0
 30
0.0
 11
0.0
 21
2.5
 31
0.0
  0
LINE
  5
2A2
330
29C
100
AcDbEntity
  8
WAKU
 62
     7
100
AcDbLine
 10
0.0
 20
0.0
 30
0.0
 11
-2.5
 21
0.0
 31
0.0
  0
LINE
  5
2A3
330
29C
100
AcDbEntity
  8
WAKU
 62
     7
100
AcDbLine
 10
0.0
 20
-5.0
 30
0.0
 11
0.0
 21
-6.5
 31
0.0
  0
LINE
  5
2A4
330
29C
100
AcDbEntity
  8
WAKU
 62
     7
100
AcDbLine
 10
5.0
 20
0.0
 30
0.0
 11
6.5
 21
0.0
 31
0.0
  0
LINE
  5
2A5
330
29C
100
AcDbEntity
  8
WAKU
 62
     7
100
AcDbLine
 10
0.0
 20
5.0
 30
0.0
 11
0.0
 21
6.5
 31
0.0
  0
LINE
  5
2A6
330
29C
100
AcDbEntity
  8
WAKU
 62
     7
100
AcDbLine
 10
-5.0
 20
0.0
 30
0.0
 11
-6.5
 21
0.0
 31
0.0
  0
ENDBLK
  5
29E
330
29C
100
AcDbEntity
  8
0
100
AcDbBlockEnd
  0
BLOCK
  5
2A9
330
2A8
100
AcDbEntity
  8
0
100
AcDbBlockBegin
  2
SW_CENTERMARKSYMBOL_9
 70
     0
 10
0.0
 20
0.0
 30
0.0
  3
SW_CENTERMARKSYMBOL_9
  1

  0
LINE
  5
2AB
330
2A8
100
AcDbEntity
  8
WAKU
 62
     7
100
AcDbLine
 10
0.0
 20
0.0
 30
0.0
 11
0.0
 21
-2.5
 31
0.0
  0
LINE
  5
2AC
330
2A8
100
AcDbEntity
  8
WAKU
 62
     7
100
AcDbLine
 10
0.0
 20
0.0
 30
0.0
 11
2.5
 21
0.0
 31
0.0
  0
LINE
  5
2AD
330
2A8
100
AcDbEntity
  8
WAKU
 62
     7
100
AcDbLine
 10
0.0
 20
0.0
 30
0.0
 11
0.0
 21
2.5
 31
0.0
  0
LINE
  5
2AE
330
2A8
100
AcDbEntity
  8
WAKU
 62
     7
100
AcDbLine
 10
0.0
 20
0.0
 30
0.0
 11
-2.5
 21
0.0
 31
0.0
  0
LINE
  5
2AF
330
2A8
100
AcDbEntity
  8
WAKU
 62
     7
100
AcDbLine
 10
0.0
 20
-5.0
 30
0.0
 11
0.0
 21
-6.5
 31
0.0
  0
LINE
  5
2B0
330
2A8
100
AcDbEntity
  8
WAKU
 62
     7
100
AcDbLine
 10
5.0
 20
0.0
 30
0.0
 11
6.5
 21
0.0
 31
0.0
  0
LINE
  5
2B1
330
2A8
100
AcDbEntity
  8
WAKU
 62
     7
100
AcDbLine
 10
0.0
 20
5.0
 30
0.0
 11
0.0
 21
6.5
 31
0.0
  0
LINE
  5
2B2
330
2A8
100
AcDbEntity
  8
WAKU
 62
     7
100
AcDbLine
 10
-5.0
 20
0.0
 30
0.0
 11
-6.5
 21
0.0
 31
0.0
  0
ENDBLK
  5
2AA
330
2A8
100
AcDbEntity
  8
0
100
AcDbBlockEnd
  0
BLOCK
  5
2B5
330
2B4
100
AcDbEntity
  8
0
100
AcDbBlockBegin
  2
SW_CENTERMARKSYMBOL_10
 70
     0
 10
0.0
 20
0.0
 30
0.0
  3
SW_CENTERMARKSYMBOL_10
  1

  0
LINE
  5
2B7
330
2B4
100
AcDbEntity
  8
WAKU
 62
     7
100
AcDbLine
 10
0.0
 20
0.0
 30
0.0
 11
0.0
 21
-2.5
 31
0.0
  0
LINE
  5
2B8
330
2B4
100
AcDbEntity
  8
WAKU
 62
     7
100
AcDbLine
 10
0.0
 20
0.0
 30
0.0
 11
2.5
 21
0.0
 31
0.0
  0
LINE
  5
2B9
330
2B4
100
AcDbEntity
  8
WAKU
 62
     7
100
AcDbLine
 10
0.0
 20
0.0
 30
0.0
 11
0.0
 21
2.5
 31
0.0
  0
LINE
  5
2BA
330
2B4
100
AcDbEntity
  8
WAKU
 62
     7
100
AcDbLine
 10
0.0
 20
0.0
 30
0.0
 11
-2.5
 21
0.0
 31
0.0
  0
LINE
  5
2BB
330
2B4
100
AcDbEntity
  8
WAKU
 62
     7
100
AcDbLine
 10
0.0
 20
-5.0
 30
0.0
 11
0.0
 21
-6.5
 31
0.0
  0
LINE
  5
2BC
330
2B4
100
AcDbEntity
  8
WAKU
 62
     7
100
AcDbLine
 10
5.0
 20
0.0
 30
0.0
 11
6.5
 21
0.0
 31
0.0
  0
LINE
  5
2BD
330
2B4
100
AcDbEntity
  8
WAKU
 62
     7
100
AcDbLine
 10
0.0
 20
5.0
 30
0.0
 11
0.0
 21
6.5
 31
0.0
  0
LINE
  5
2BE
330
2B4
100
AcDbEntity
  8
WAKU
 62
     7
100
AcDbLine
 10
-5.0
 20
0.0
 30
0.0
 11
-6.5
 21
0.0
 31
0.0
  0
ENDBLK
  5
2B6
330
2B4
100
AcDbEntity
  8
0
100
AcDbBlockEnd
  0
BLOCK
  5
2C1
330
2C0
100
AcDbEntity
  8
0
100
AcDbBlockBegin
  2
SW_CENTERMARKSYMBOL_11
 70
     0
 10
0.0
 20
0.0
 30
0.0
  3
SW_CENTERMARKSYMBOL_11
  1

  0
LINE
  5
2C3
330
2C0
100
AcDbEntity
  8
WAKU
 62
     7
100
AcDbLine
 10
0.0
 20
0.0
 30
0.0
 11
0.0
 21
-2.5
 31
0.0
  0
LINE
  5
2C4
330
2C0
100
AcDbEntity
  8
WAKU
 62
     7
100
AcDbLine
 10
0.0
 20
0.0
 30
0.0
 11
2.5
 21
0.0
 31
0.0
  0
LINE
  5
2C5
330
2C0
100
AcDbEntity
  8
WAKU
 62
     7
100
AcDbLine
 10
0.0
 20
0.0
 30
0.0
 11
0.0
 21
2.5
 31
0.0
  0
LINE
  5
2C6
330
2C0
100
AcDbEntity
  8
WAKU
 62
     7
100
AcDbLine
 10
0.0
 20
0.0
 30
0.0
 11
-2.5
 21
0.0
 31
0.0
  0
LINE
  5
2C7
330
2C0
100
AcDbEntity
  8
WAKU
 62
     7
100
AcDbLine
 10
0.0
 20
-5.0
 30
0.0
 11
0.0
 21
-16.0
 31
0.0
  0
LINE
  5
2C8
330
2C0
100
AcDbEntity
  8
WAKU
 62
     7
100
AcDbLine
 10
5.0
 20
0.0
 30
0.0
 11
16.0
 21
0.0
 31
0.0
  0
LINE
  5
2C9
330
2C0
100
AcDbEntity
  8
WAKU
 62
     7
100
AcDbLine
 10
0.0
 20
5.0
 30
0.0
 11
0.0
 21
16.0
 31
0.0
  0
LINE
  5
2CA
330
2C0
100
AcDbEntity
  8
WAKU
 62
     7
100
AcDbLine
 10
-5.0
 20
0.0
 30
0.0
 11
-16.0
 21
0.0
 31
0.0
  0
ENDBLK
  5
2C2
330
2C0
100
AcDbEntity
  8
0
100
AcDbBlockEnd
  0
ENDSEC
  0
SECTION
  2
ENTITIES
  0
LINE
  5
31
330
1F
100
AcDbEntity
  8
WAKU
370
    15
100
AcDbLine
 10
82.8970623742
 20
1147.3531589537
 30
0.0
 11
802.8970623741999
 21
1147.3531589537
 31
0.0
  0
LINE
  5
32
330
1F
100
AcDbEntity
  8
WAKU
370
    15
100
AcDbLine
 10
82.8970623742
 20
1147.3531589537
 30
0.0
 11
82.8970623742
 21
35.3531589537
 31
0.0
  0
LINE
  5
33
330
1F
100
AcDbEntity
  8
WAKU
370
    15
100
AcDbLine
 10
802.8970623741999
 20
1147.3531589537
 30
0.0
 11
802.8970623741999
 21
35.3531589537
 31
0.0
  0
LINE
  5
34
330
1F
100
AcDbEntity
  8
WAKU
370
    15
100
AcDbLine
 10
82.8970623742
 20
35.3531589537
 30
0.0
 11
802.8970623741999
 21
35.3531589537
 31
0.0
  0
LINE
  5
35
330
1F
100
AcDbEntity
  8
WAKU
100
AcDbLine
 10
394.8970623742
 20
179.3531589537
 30
0.0
 11
522.8970623741999
 21
179.3531589537
 31
0.0
  0
LINE
  5
36
330
1F
100
AcDbEntity
  8
WAKU
370
    15
100
AcDbLine
 10
82.8970623742
 20
203.3531589537
 30
0.0
 11
802.8970623741999
 21
203.3531589537
 31
0.0
  0
LINE
  5
37
330
1F
100
AcDbEntity
  8
WAKU
 62
     7
370
    15
100
AcDbLine
 10
82.8970623742
 20
169.7531589537
 30
0.0
 11
394.8970623742
 21
169.7531589537
 31
0.0
  0
LINE
  5
38
330
1F
100
AcDbEntity
  8
WAKU
 62
     7
370
    15
100
AcDbLine
 10
82.8970623742
 20
136.1531589537
 30
0.0
 11
394.8970623742
 21
136.1531589537
 31
0.0
  0
LINE
  5
39
330
1F
100
AcDbEntity
  8
WAKU
 62
     7
370
    15
100
AcDbLine
 10
82.8970623742
 20
102.5531589537
 30
0.0
 11
394.8970623742
 21
102.5531589537
 31
0.0
  0
LINE
  5
3A
330
1F
100
AcDbEntity
  8
WAKU
 62
     7
370
    15
100
AcDbLine
 10
82.8970623742
 20
68.9531589537
 30
0.0
 11
394.8970623742
 21
68.9531589537
 31
0.0
  0
LINE
  5
3B
330
1F
100
AcDbEntity
  8
WAKU
100
AcDbLine
 10
394.8970623742
 20
96.95315895370001
 30
0.0
 11
586.8970623742
 21
96.95315895370001
 31
0.0
  0
LINE
  5
3C
330
1F
100
AcDbEntity
  8
WAKU
370
    15
100
AcDbLine
 10
394.8970623742
 20
203.3531589537
 30
0.0
 11
394.8970623742
 21
35.3531589537
 31
0.0
  0
LINE
  5
3D
330
1F
100
AcDbEntity
  8
WAKU
370
    15
100
AcDbLine
 10
458.8970623742
 20
203.3531589537
 30
0.0
 11
458.8970623742
 21
35.3531589537
 31
0.0
  0
LINE
  5
3E
330
1F
100
AcDbEntity
  8
WAKU
370
    15
100
AcDbLine
 10
522.8970623741999
 20
203.3531589537
 30
0.0
 11
522.8970623741999
 21
35.3531589537
 31
0.0
  0
LINE
  5
3F
330
1F
100
AcDbEntity
  8
WAKU
370
    15
100
AcDbLine
 10
586.8970623742
 20
120.9531589537
 30
0.0
 11
586.8970623742
 21
35.3531589537
 31
0.0
  0
LINE
  5
40
330
1F
100
AcDbEntity
  8
WAKU
370
    15
100
AcDbLine
 10
394.8970623742
 20
120.9531589537
 30
0.0
 11
802.8970623741999
 21
120.9531589537
 31
0.0
  0
LINE
  5
41
330
1F
100
AcDbEntity
  8
WAKU
370
    15
100
AcDbLine
 10
115.0843368377
 20
203.3531589537
 30
0.0
 11
115.0843368377
 21
35.3531589537
 31
0.0
  0
LINE
  5
42
330
1F
100
AcDbEntity
  8
WAKU
370
    15
100
AcDbLine
 10
185.9755838747
 20
203.3531589537
 30
0.0
 11
185.9755838747
 21
35.3531589537
 31
0.0
  0
LINE
  5
43
330
1F
100
AcDbEntity
  8
WAKU
370
    15
100
AcDbLine
 10
344.258626828
 20
203.3531589537
 30
0.0
 11
344.258626828
 21
35.3531589537
 31
0.0
  0
MTEXT
  5
45
330
1F
100
AcDbEntity
  8
WAKU
100
AcDbMText
 10
662.2494793739999
 20
84.9579538953
 30
0.0
 40
19.05
 41
0.0
 71
     1
 72
     1
  1
A-ID5
  7
SLDTEXTSTYLE0
 73
     1
 44
1.0
1001
ACAD
1000
MTEXTBEGIN
1070
    73
1070
     1
1070
    44
1040
1.0
1070
    74
1070
     0
1000
MTEXTEND
  0
MTEXT
  5
47
330
1F
100
AcDbEntity
  8
WAKU
100
AcDbMText
 10
712.7648533699999
 20
1134.6423580575
 30
0.0
 40
10.5833333333
 41
0.0
 71
     1
 72
     1
  1
{\fProxy 2|b0|i0|c128|p0;Unit:}
  7
SLDTEXTSTYLE1
 73
     1
 44
1.0
1001
ACAD
1000
MTEXTBEGIN
1070
    73
1070
     1
1070
    44
1040
1.0
1070
    74
1070
     0
1000
MTEXTEND
  0
MTEXT
  5
48
330
1F
100
AcDbEntity
  8
WAKU
100
AcDbMText
 10
753.4160763295
 20
1140.5700283898
 30
0.0
 40
10.5833333333
 41
0.0
 71
     1
 72
     1
  1
[ inch ]
  7
SLDTEXTSTYLE1
 73
     1
 44
1.0
1001
ACAD
1000
MTEXTBEGIN
1070
    73
1070
     1
1070
    44
1040
1.0
1070
    74
1070
     0
1000
MTEXTEND
  0
MTEXT
  5
49
330
1F
100
AcDbEntity
  8
WAKU
100
AcDbMText
 10
764.1406887939999
 20
1126.8241817782
 30
0.0
 40
10.5833333333
 41
0.0
 71
     1
 72
     1
  1
mm
  7
SLDTEXTSTYLE1
 73
     1
 44
1.0
1001
ACAD
1000
MTEXTBEGIN
1070
    73
1070
     1
1070
    44
1040
1.0
1070
    74
1070
     0
1000
MTEXTEND
  0
CIRCLE
  5
4A
330
1F
100
AcDbEntity
  8
0
  6
Continuous
 62
     7
370
    15
100
AcDbCircle
 10
292.1380660146
 20
924.5426743517999
 30
0.0
 40
74.99999999999997
  0
CIRCLE
  5
4B
330
1F
100
AcDbEntity
  8
0
  6
Continuous
 62
     7
370
     0
100
AcDbCircle
 10
198.8495515796
 20
914.7364326793999
 30
0.0
 40
5.620839629948308
  0
CIRCLE
  5
4C
330
1F
100
AcDbEntity
  8
0
  6
Continuous
 62
     7
370
     0
100
AcDbCircle
 10
385.4265804496
 20
934.3489160241999
 30
0.0
 40
5.620839629948348
  0
CIRCLE
  5
4D
330
1F
100
AcDbEntity
  8
0
  6
Continuous
 62
     7
370
    15
100
AcDbCircle
 10
292.1380660146
 20
924.5426743517999
 30
0.0
 40
76.0
  0
CIRCLE
  5
4E
330
1F
100
AcDbEntity
  8
0
  6
Continuous
 62
     7
370
    15
100
AcDbCircle
 10
385.6231241792
 20
934.3683498989999
 30
0.0
 40
4.5
  0
CIRCLE
  5
4F
330
1F
100
AcDbEntity
  8
0
  6
Continuous
 62
     7
370
    15
100
AcDbCircle
 10
198.65300785
 20
914.7169988046
 30
0.0
 40
4.5
  0
LINE
  5
50
330
1F
100
AcDbEntity
  8
0
  6
Continuous
 62
     7
370
    15
100
AcDbLine
 10
384.854737541
 20
937.3041144799
 30
0.0
 11
385.0159965524
 21
935.7698685721
 31
0.0
  0
ARC
  5
51
330
1F
100
AcDbEntity
  8
0
  6
Continuous
 62
     7
370
    15
100
AcDbCircle
 10
384.021474657
 20
935.6653401087999
 30
0.0
 40
1.000000000000009
100
AcDbArc
 50
276.0
 51
6.0
  0
LINE
  5
52
330
1F
100
AcDbEntity
  8
0
  6
Continuous
 62
     7
370
    15
100
AcDbLine
 10
384.1260031203
 20
934.6708182133999
 30
0.0
 11
382.5917577951999
 21
934.5095628167998
 31
0.0
  0
LINE
  5
53
330
1F
100
AcDbEntity
  8
0
  6
Continuous
 62
     7
370
    15
100
AcDbLine
 10
382.5917577951999
 20
934.5095628167998
 30
0.0
 11
382.6873561948
 21
933.5999661351999
 31
0.0
  0
LINE
  5
54
330
1F
100
AcDbEntity
  8
0
  6
Continuous
 62
     7
370
    15
100
AcDbLine
 10
382.6873561948
 20
933.5999661351999
 30
0.0
 11
384.2216055061
 21
933.7612222722
 31
0.0
  0
ARC
  5
55
330
1F
100
AcDbEntity
  8
0
  6
Continuous
 62
     7
370
    15
100
AcDbCircle
 10
384.3261339694
 20
932.7667003767999
 30
0.0
 40
1.000000000000009
100
AcDbArc
 50
6.0
 51
96.00000000000001
  0
LINE
  5
56
330
1F
100
AcDbEntity
  8
0
  6
Continuous
 62
     7
370
    15
100
AcDbLine
 10
385.3206558647
 20
932.8712288400998
 30
0.0
 11
385.4819125145
 21
931.3369831297
 31
0.0
  0
LINE
  5
57
330
1F
100
AcDbEntity
  8
0
  6
Continuous
 62
     7
370
    15
100
AcDbLine
 10
385.4819125145
 20
931.3369831297
 30
0.0
 11
386.3915091961
 21
931.4325852546001
 31
0.0
  0
LINE
  5
58
330
1F
100
AcDbEntity
  8
0
  6
Continuous
 62
     7
370
    15
100
AcDbLine
 10
386.3915091961
 20
931.4325852546001
 30
0.0
 11
386.230251806
 21
932.9668312258998
 31
0.0
  0
ARC
  5
59
330
1F
100
AcDbEntity
  8
0
  6
Continuous
 62
     7
370
    15
100
AcDbCircle
 10
387.2247737014
 20
933.0713596890999
 30
0.0
 40
1.000000000000009
100
AcDbArc
 50
96.00000000000001
 51
186.0
  0
LINE
  5
5A
330
1F
100
AcDbEntity
  8
0
  6
Continuous
 62
     7
370
    15
100
AcDbLine
 10
387.1202452381
 20
934.0658815844999
 30
0.0
 11
388.654488942
 21
934.2271373834
 31
0.0
  0
LINE
  5
5B
330
1F
100
AcDbEntity
  8
0
  6
Continuous
 62
     7
370
    15
100
AcDbLine
 10
388.654488942
 20
934.2271373834
 30
0.0
 11
388.5588905423
 21
935.1367331337
 31
0.0
  0
LINE
  5
5C
330
1F
100
AcDbEntity
  8
0
  6
Continuous
 62
     7
370
    15
100
AcDbLine
 10
388.5588905423
 20
935.1367331337
 30
0.0
 11
387.0246428523
 21
934.9754775258
 31
0.0
  0
ARC
  5
5D
330
1F
100
AcDbEntity
  8
0
  6
Continuous
 62
     7
370
    15
100
AcDbCircle
 10
386.920114389
 20
935.9699994211
 30
0.0
 40
1.000000000000123
100
AcDbArc
 50
186.0000000001
 51
276.0
  0
LINE
  5
5E
330
1F
100
AcDbEntity
  8
0
  6
Continuous
 62
     7
370
    15
100
AcDbLine
 10
385.9255924937
 20
935.8654709578999
 30
0.0
 11
385.7643342226
 21
937.3997166047999
 31
0.0
  0
LINE
  5
5F
330
1F
100
AcDbEntity
  8
0
  6
Continuous
 62
     7
370
    15
100
AcDbLine
 10
385.7643342226
 20
937.3997166047999
 30
0.0
 11
384.854737541
 21
937.3041144799
 31
0.0
  0
CIRCLE
  5
60
330
1F
100
AcDbEntity
  8
0
  6
Continuous
 62
     7
370
    15
100
AcDbCircle
 10
385.6231241792
 20
934.3683498989999
 30
0.0
 40
4.0
  0
LINE
  5
61
330
1F
100
AcDbEntity
  8
0
  6
Continuous
 62
     7
370
    15
100
AcDbLine
 10
198.3505395355
 20
913.2198777457
 30
0.0
 11
198.5117978066
 21
911.6856320988
 31
0.0
  0
ARC
  5
62
330
1F
100
AcDbEntity
  8
0
  6
Continuous
 62
     7
370
    15
100
AcDbCircle
 10
197.3560176401
 20
913.1153492824999
 30
0.0
 40
1.000000000000009
100
AcDbArc
 50
6.0
 51
96.00000000000001
  0
LINE
  5
63
330
1F
100
AcDbEntity
  8
0
  6
Continuous
 62
     7
370
    15
100
AcDbLine
 10
199.4213944882
 20
911.7812342237
 30
0.0
 11
199.2601354768
 21
913.3154801314999
 31
0.0
  0
ARC
  5
64
330
1F
100
AcDbEntity
  8
0
  6
Continuous
 62
     7
370
    15
100
AcDbCircle
 10
200.2546573721
 20
913.4200085947998
 30
0.0
 40
1.000000000000003
100
AcDbArc
 50
96.00000000000001
 51
186.0
  0
LINE
  5
65
330
1F
100
AcDbEntity
  8
0
  6
Continuous
 62
     7
370
    15
100
AcDbLine
 10
200.1501289089
 20
914.4145304902
 30
0.0
 11
201.684374234
 21
914.5757858868
 31
0.0
  0
LINE
  5
66
330
1F
100
AcDbEntity
  8
0
  6
Continuous
 62
     7
370
    15
100
AcDbLine
 10
201.684374234
 20
914.5757858868
 30
0.0
 11
201.5887758344
 21
915.4853825683998
 31
0.0
  0
LINE
  5
67
330
1F
100
AcDbEntity
  8
0
  6
Continuous
 62
     7
370
    15
100
AcDbLine
 10
201.5887758344
 20
915.4853825683998
 30
0.0
 11
200.0545265231
 21
915.3241264314999
 31
0.0
  0
ARC
  5
68
330
1F
100
AcDbEntity
  8
0
  6
Continuous
 62
     7
370
    15
100
AcDbCircle
 10
199.9499980598
 20
916.3186483267999
 30
0.0
 40
1.000000000000005
100
AcDbArc
 50
186.0
 51
276.0
  0
LINE
  5
69
330
1F
100
AcDbEntity
  8
0
  6
Continuous
 62
     7
370
    15
100
AcDbLine
 10
198.9554761644
 20
916.2141198636
 30
0.0
 11
198.7942195147
 21
917.7483655738999
 31
0.0
  0
LINE
  5
6A
330
1F
100
AcDbEntity
  8
0
  6
Continuous
 62
     7
370
    15
100
AcDbLine
 10
198.7942195147
 20
917.7483655738999
 30
0.0
 11
197.8846228331
 21
917.652763449
 31
0.0
  0
LINE
  5
6B
330
1F
100
AcDbEntity
  8
0
  6
Continuous
 62
     7
370
    15
100
AcDbLine
 10
197.8846228331
 20
917.652763449
 30
0.0
 11
198.0458802232
 21
916.1185174777001
 31
0.0
  0
ARC
  5
6C
330
1F
100
AcDbEntity
  8
0
  6
Continuous
 62
     7
370
    15
100
AcDbCircle
 10
197.0513583278
 20
916.0139890145
 30
0.0
 40
1.000000000000001
100
AcDbArc
 50
276.0
 51
6.0
  0
LINE
  5
6D
330
1F
100
AcDbEntity
  8
0
  6
Continuous
 62
     7
370
    15
100
AcDbLine
 10
197.1558867911
 20
915.0194671191
 30
0.0
 11
195.6216430872
 21
914.8582113202001
 31
0.0
  0
LINE
  5
6E
330
1F
100
AcDbEntity
  8
0
  6
Continuous
 62
     7
370
    15
100
AcDbLine
 10
195.6216430872
 20
914.8582113202001
 30
0.0
 11
195.7172414868
 21
913.9486155699001
 31
0.0
  0
LINE
  5
6F
330
1F
100
AcDbEntity
  8
0
  6
Continuous
 62
     7
370
    15
100
AcDbLine
 10
195.7172414868
 20
913.9486155699001
 30
0.0
 11
197.2514891769
 21
914.1098711777999
 31
0.0
  0
LINE
  5
70
330
1F
100
AcDbEntity
  8
0
  6
Continuous
 62
     7
370
    15
100
AcDbLine
 10
198.5117978066
 20
911.6856320988
 30
0.0
 11
199.4213944882
 21
911.7812342237
 31
0.0
  0
CIRCLE
  5
71
330
1F
100
AcDbEntity
  8
0
  6
Continuous
 62
     7
370
    15
100
AcDbCircle
 10
198.65300785
 20
914.7169988046
 30
0.0
 40
4.0
  0
CIRCLE
  5
72
330
1F
100
AcDbEntity
  8
0
  6
Continuous
 62
     7
370
    15
100
AcDbCircle
 10
292.1380660146
 20
924.5426743517999
 30
0.0
 40
110.0000000000001
  0
CIRCLE
  5
73
330
1F
100
AcDbEntity
  8
0
  6
Continuous
 62
     7
370
     0
100
AcDbCircle
 10
292.1380660146
 20
924.5426743517999
 30
0.0
 40
107.9509783961089
  0
CIRCLE
  5
74
330
1F
100
AcDbEntity
  8
0
  6
PHANTOM
 62
     7
370
     0
100
AcDbCircle
 10
292.1380660146
 20
924.5426743517999
 30
0.0
 40
109.8307934217151
  0
DIMENSION
  5
75
330
1F
100
AcDbEntity
  8
WAKU
 62
     7
100
AcDbDimension
  2
*D1
 10
402.1380660145999
 20
765.3833098773
 30
0.0
 11
292.1380660146
 21
765.3833098773
 31
0.0
 70
   160
  1
%%c<>
 42
880.0
  3
SLDDIMSTYLE0
100
AcDbAlignedDimension
 13
182.1380660145999
 23
924.5426743517999
 33
0.0
 14
402.1380660145999
 24
924.5426743517999
 34
0.0
100
AcDbRotatedDimension
1001
ACAD
1000
DSTYLE
1002
{
1070
    77
1070
     3
1070
   143
1040
0.0393700787
1070
    41
1040
8.0
1070
    44
1040
4.0
1070
    42
1040
4.0
1070
   147
1040
6.096
1070
    73
1070
     0
1070
    74
1070
     0
1070
   140
1040
14.1111111111
1070
   284
1070
    12
1070
    78
1070
    12
1002
}
  0
DIMENSION
  5
98
330
1F
100
AcDbEntity
  8
WAKU
 62
     7
100
AcDbDimension
  2
*D3
 10
155.6399142759
 20
848.5426743517999
 30
0.0
 11
155.6399142759
 21
924.5426743517999
 31
0.0
 70
   160
  1
%%c<>
 42
608.0
  3
SLDDIMSTYLE0
100
AcDbAlignedDimension
 13
292.1380660146
 23
1000.5426743518
 33
0.0
 14
292.1380660146
 24
848.5426743517999
 34
0.0
 50
90.0
100
AcDbRotatedDimension
1001
ACAD
1000
DSTYLE
1002
{
1070
    77
1070
     3
1070
   143
1040
0.0393700787
1070
    41
1040
8.0
1070
    44
1040
4.0
1070
    42
1040
4.0
1070
   147
1040
6.096
1070
    73
1070
     0
1070
    74
1070
     0
1070
   140
1040
14.1111111111
1070
   284
1070
    12
1070
    78
1070
    12
1002
}
  0
INSERT
  5
BF
330
1F
100
AcDbEntity
  8
0
  6
Continuous
 62
     7
370
     0
100
AcDbBlockReference
  2
SW_CENTERMARKSYMBOL_0
 10
292.1380660146
 20
924.5426743517999
 30
0.0
  0
INSERT
  5
CB
330
1F
100
AcDbEntity
  8
WAKU
 62
     7
100
AcDbBlockReference
  2
SW_CENTERMARKSYMBOL_1
 10
385.6231241792
 20
934.3683498989999
 30
0.0
  0
INSERT
  5
D7
330
1F
100
AcDbEntity
  8
WAKU
 62
     7
100
AcDbBlockReference
  2
SW_CENTERMARKSYMBOL_2
 10
198.65300785
 20
914.7169988046
 30
0.0
  0
LINE
  5
D8
330
1F
100
AcDbEntity
  8
WAKU
 62
     7
370
    15
100
AcDbLine
 10
587.8169796708999
 20
938.0426743517999
 30
0.0
 11
621.2169796708999
 21
938.0426743517999
 31
0.0
  0
LINE
  5
D9
330
1F
100
AcDbEntity
  8
WAKU
 62
     7
370
    15
100
AcDbLine
 10
587.8169796708999
 20
911.0426743517999
 30
0.0
 11
621.2169796708999
 21
911.0426743517999
 31
0.0
  0
LINE
  5
DA
330
1F
100
AcDbEntity
  8
WAKU
 62
     7
370
     0
100
AcDbLine
 10
557.9947881407999
 20
849.5426743517999
 30
0.0
 11
563.2169796708999
 21
849.5426743517999
 31
0.0
  0
LINE
  5
DB
330
1F
100
AcDbEntity
  8
WAKU
 62
     7
370
     0
100
AcDbLine
 10
563.2169796708999
 20
999.5426743517999
 30
0.0
 11
553.4904802843
 21
999.5426743517999
 31
0.0
  0
LINE
  5
DC
330
1F
100
AcDbEntity
  8
WAKU
 62
     7
370
     0
100
AcDbLine
 10
476.1299404755
 20
924.5426743517999
 30
0.0
 11
729.9074323010001
 21
924.5426743517999
 31
0.0
  0
LINE
  5
DD
330
1F
100
AcDbEntity
  8
0
  6
Continuous
 62
     7
370
    15
100
AcDbLine
 10
569.2169796708999
 20
1034.5426743518
 30
0.0
 11
565.9883258220999
 21
1034.3734677735
 31
0.0
  0
LINE
  5
DE
330
1F
100
AcDbEntity
  8
0
  6
Continuous
 62
     7
370
    15
100
AcDbLine
 10
565.9883258220999
 20
814.7118809301
 30
0.0
 11
569.2169796708999
 21
814.5426743517999
 31
0.0
  0
ARC
  5
DF
330
1F
100
AcDbEntity
  8
0
  6
Continuous
 62
     7
370
    15
100
AcDbCircle
 10
566.0929977346
 20
816.7091399996001
 30
0.0
 40
2.000000000000083
100
AcDbArc
 50
183.3664606634
 51
267.0
  0
ARC
  5
E0
330
1F
100
AcDbEntity
  8
0
  6
Continuous
 62
     7
370
    15
100
AcDbCircle
 10
566.0929977346
 20
1032.376208704
 30
0.0
 40
2.000000000000075
100
AcDbArc
 50
93.0
 51
176.6335393366
  0
LINE
  5
E1
330
1F
100
AcDbEntity
  8
0
  6
Continuous
 62
     7
370
    15
100
AcDbLine
 10
564.0964489883
 20
1032.4936527479
 30
0.0
 11
562.2169796708999
 21
1000.5426743518
 31
0.0
  0
LINE
  5
E2
330
1F
100
AcDbEntity
  8
0
  6
Continuous
 62
     7
370
    15
100
AcDbLine
 10
562.2169796708999
 20
848.5426743517999
 30
0.0
 11
564.0964489883
 21
816.5916959557
 31
0.0
  0
ARC
  5
E3
330
1F
100
AcDbEntity
  8
0
  6
Continuous
 62
     7
370
    15
100
AcDbCircle
 10
573.2169796708999
 20
829.1118852992999
 30
0.0
 40
4.000000000000053
100
AcDbArc
 50
91.0
 51
180.0
  0
LINE
  5
E4
330
1F
100
AcDbEntity
  8
0
  6
Continuous
 62
     7
370
    15
100
AcDbLine
 10
573.1471700451
 20
833.1112760799999
 30
0.0
 11
703.2867892966001
 21
835.3828715837
 31
0.0
  0
ARC
  5
E5
330
1F
100
AcDbEntity
  8
0
  6
Continuous
 62
     7
370
    15
100
AcDbCircle
 10
563.2169796708999
 20
924.5426743517999
 30
0.0
 40
75.00000000000007
100
AcDbArc
 50
90.763966364
 51
269.236033636
  0
ARC
  5
E6
330
1F
100
AcDbEntity
  8
0
  6
Continuous
 62
     7
370
    15
100
AcDbCircle
 10
703.2169796708999
 20
839.3822623644
 30
0.0
 40
4.000000000000046
100
AcDbArc
 50
271.0
 51
0.0
  0
LINE
  5
E7
330
1F
100
AcDbEntity
  8
0
  6
Continuous
 62
     7
370
    15
100
AcDbLine
 10
707.2169762138001
 20
958.5426761996002
 30
0.0
 11
709.2169796708999
 21
958.5426743517999
 31
0.0
  0
LINE
  5
E8
330
1F
100
AcDbEntity
  8
0
  6
Continuous
 62
     7
370
    15
100
AcDbLine
 10
709.2169796708999
 20
966.5426743517999
 30
0.0
 11
707.2169762138001
 21
966.5426737856
 31
0.0
  0
LINE
  5
E9
330
1F
100
AcDbEntity
  8
0
  6
Continuous
 62
     7
370
    15
100
AcDbLine
 10
707.2169762138001
 20
920.5426741618
 30
0.0
 11
709.2169796708999
 21
920.5426743518
 31
0.0
  0
LINE
  5
EA
330
1F
100
AcDbEntity
  8
0
  6
Continuous
 62
     7
370
    15
100
AcDbLine
 10
709.2169796708999
 20
928.5426743518
 30
0.0
 11
707.2169762138001
 21
928.5426745417998
 31
0.0
  0
ARC
  5
EB
330
1F
100
AcDbEntity
  8
0
  6
Continuous
 62
     7
370
    15
100
AcDbCircle
 10
573.2169796708999
 20
1019.9734634043
 30
0.0
 40
4.0
100
AcDbArc
 50
180.0
 51
269.0
  0
LINE
  5
EC
330
1F
100
AcDbEntity
  8
0
  6
Continuous
 62
     7
370
    15
100
AcDbLine
 10
703.2867892966001
 20
1013.7024771199
 30
0.0
 11
573.1471700451
 21
1015.9740726236
 31
0.0
  0
ARC
  5
ED
330
1F
100
AcDbEntity
  8
0
  6
Continuous
 62
     7
370
    15
100
AcDbCircle
 10
703.2169796708999
 20
1009.7030863392
 30
0.0
 40
4.00000000000016
100
AcDbArc
 50
0.0
 51
89.0
  0
LINE
  5
EE
330
1F
100
AcDbEntity
  8
0
  6
Continuous
 62
     7
370
    15
100
AcDbLine
 10
707.2169762138001
 20
990.5426739941999
 30
0.0
 11
709.2169796708999
 21
990.5426743517999
 31
0.0
  0
LINE
  5
EF
330
1F
100
AcDbEntity
  8
0
  6
Continuous
 62
     7
370
    15
100
AcDbLine
 10
709.2169796708999
 20
998.5426743517999
 30
0.0
 11
707.2169762138001
 21
998.5426753055
 31
0.0
  0
LINE
  5
F0
330
1F
100
AcDbEntity
  8
0
  6
Continuous
 62
     7
370
    15
100
AcDbLine
 10
645.8169796708999
 20
927.0426743517999
 30
0.0
 11
622.8169780258
 21
927.0426742958999
 31
0.0
  0
LINE
  5
F1
330
1F
100
AcDbEntity
  8
0
  6
Continuous
 62
     7
370
    15
100
AcDbLine
 10
622.8169780258
 20
922.0426744077
 30
0.0
 11
645.8169796708999
 21
922.0426743518
 31
0.0
  0
LINE
  5
F2
330
1F
100
AcDbEntity
  8
0
  6
Continuous
 62
     7
370
    15
100
AcDbLine
 10
586.2169805946999
 20
927.0426742958999
 30
0.0
 11
569.2169796708999
 21
927.0426742958999
 31
0.0
  0
LINE
  5
F3
330
1F
100
AcDbEntity
  8
0
  6
Continuous
 62
     7
370
    15
100
AcDbLine
 10
569.2169796708999
 20
922.0426744077
 30
0.0
 11
586.2169805946999
 21
922.0426744077
 31
0.0
  0
LINE
  5
F4
330
1F
100
AcDbEntity
  8
0
  6
Continuous
 62
     7
370
    15
100
AcDbLine
 10
569.2169796708999
 20
924.5426743517999
 30
0.0
 11
569.2169796708999
 21
814.5426743517999
 31
0.0
  0
LINE
  5
F5
330
1F
100
AcDbEntity
  8
0
  6
Continuous
 62
     7
370
    15
100
AcDbLine
 10
569.2169796708999
 20
1034.5426743518
 30
0.0
 11
569.2169796708999
 21
924.5426743517999
 31
0.0
  0
LINE
  5
F6
330
1F
100
AcDbEntity
  8
0
  6
Continuous
 62
     7
370
    15
100
AcDbLine
 10
562.2169796708999
 20
924.5426743517999
 30
0.0
 11
562.2169796708999
 21
848.5426743517999
 31
0.0
  0
LINE
  5
F7
330
1F
100
AcDbEntity
  8
0
  6
Continuous
 62
     7
370
    15
100
AcDbLine
 10
562.2169796708999
 20
1000.5426743518
 30
0.0
 11
562.2169796708999
 21
924.5426743517999
 31
0.0
  0
LWPOLYLINE
  5
F8
330
1F
100
AcDbEntity
  8
0
  6
Continuous
 62
     7
370
    15
100
AcDbPolyline
 90
       70
 70
   128
 43
0.0
 10
562.9335478913
 20
933.7601675878998
 10
562.9349341649
 20
934.2532376984999
 10
562.9390445571
 20
934.7489211003999
 10
562.9458073559999
 20
935.2414752582999
 10
562.9551494526999
 20
935.7251557748
 10
562.9707262883999
 20
936.3246090005999
 10
562.9901886019
 20
936.9010781164998
 10
563.0131280082999
 20
937.4438072782
 10
563.0393940988999
 20
937.9483689781
 10
563.0685947868999
 20
938.4092609625
 10
563.1001400794
 20
938.8179308962
 10
563.1252303753
 20
939.0880861546001
 10
563.1513572330999
 20
939.3254504766
 10
563.178229149
 20
939.5277281519
 10
563.205557413
 20
939.6926244016
 10
563.2333196732999
 20
939.8194146569
 10
563.2613319937
 20
939.9075783085001
 10
563.2892991448999
 20
939.9563879932999
 10
563.3169263633999
 20
939.9651210050999
 10
563.3441400747
 20
939.9331915418999
 10
563.3708289858
 20
939.861157466
 10
563.3967234786
 20
939.7499705892
 10
563.4215557981
 20
939.6005845855
 10
563.4452090632
 20
939.4132732639999
 10
563.4676557998999
 20
939.1890070627999
 10
563.4886785444
 20
938.9303284924
 10
563.5080612298
 20
938.6397837888001
 10
563.5256841812
 20
938.3188993897
 10
563.5415725443
 20
937.9684715758999
 10
563.5555796358
 20
937.5923541600998
 10
563.5675592381
 20
937.1943990927
 10
563.5774289291
 20
936.7770613397999
 10
563.5852250304
 20
936.34093136
 10
563.5908828149999
 20
935.8907197828999
 10
563.5943375560999
 20
935.4311325814
 10
563.5954686474
 20
934.8077173571999
 10
563.5926895807999
 20
934.1765973012
 10
563.5860487851999
 20
933.5496560896999
 10
563.5755532453999
 20
932.9333012219001
 10
563.5613319497
 20
932.3328454273999
 10
563.5436284388999
 20
931.7595353577001
 10
563.5225074399
 20
931.2185449752
 10
563.4982003863999
 20
930.7152126211001
 10
563.4711287017999
 20
930.2589111257001
 10
563.4490670669
 20
929.9500016721999
 10
563.4256238151
 20
929.6712805744
 10
563.4010387617999
 20
929.4254859205
 10
563.3755503256
 20
929.2153548675999
 10
563.3491463991999
 20
929.0415961521999
 10
563.3219983462001
 20
928.9050507586001
 10
563.2943874258
 20
928.8069433759
 10
563.2665962945
 20
928.7484991591
 10
563.2386580142999
 20
928.7304096150998
 10
563.2107364978
 20
928.7524242181
 10
563.1831293027
 20
928.8141075747999
 10
563.1561358491999
 20
928.915027086
 10
563.1298618424
 20
929.0553569088999
 10
563.1044148501
 20
929.2341163609
 10
563.0800765972
 20
929.4492383714
 10
563.0571269462999
 20
929.6986544732002
 10
563.0357246878999
 20
929.9813411425001
 10
563.0159052121999
 20
930.2963335294
 10
562.9978915709999
 20
930.6401452276
 10
562.9819063502999
 20
931.0092898311999
 10
562.9680971648
 20
931.4013896736998
 10
562.956449579
 20
931.8159455660001
 10
562.9470893215
 20
932.2484550292999
 10
562.9401444491
 20
932.6944151189
 10
562.9352061110999
 20
933.2219935249
 10
562.9335478913
 20
933.7601675878998
  0
LINE
  5
F9
330
1F
100
AcDbEntity
  8
0
  6
Continuous
 62
     7
370
    15
100
AcDbLine
 10
625.2169813993999
 20
904.9426741192998
 30
0.0
 11
622.8169780258
 21
902.5426744710001
 31
0.0
  0
LINE
  5
FA
330
1F
100
AcDbEntity
  8
0
  6
Continuous
 62
     7
370
    15
100
AcDbLine
 10
625.2169813993999
 20
944.1426745842999
 30
0.0
 11
625.2169813993999
 21
927.0426742958999
 31
0.0
  0
LINE
  5
FB
330
1F
100
AcDbEntity
  8
0
  6
Continuous
 62
     7
370
    15
100
AcDbLine
 10
625.2169813993999
 20
922.0426744077
 30
0.0
 11
625.2169813993999
 21
904.9426741192998
 31
0.0
  0
LINE
  5
FC
330
1F
100
AcDbEntity
  8
0
  6
Continuous
 62
     7
370
    15
100
AcDbLine
 10
622.8169780258
 20
946.5426742325998
 30
0.0
 11
625.2169813993999
 21
944.1426745842999
 31
0.0
  0
LINE
  5
FD
330
1F
100
AcDbEntity
  8
0
  6
Continuous
 62
     7
370
    15
100
AcDbLine
 10
707.2169796708999
 20
970.3277944460001
 30
0.0
 11
707.2169796708999
 21
960.6684244959
 31
0.0
  0
LINE
  5
FE
330
1F
100
AcDbEntity
  8
0
  6
Continuous
 62
     7
370
    15
100
AcDbLine
 10
707.2169796708999
 20
960.6684244959
 30
0.0
 11
707.2169796708999
 21
885.6550156411
 31
0.0
  0
LINE
  5
FF
330
1F
100
AcDbEntity
  8
0
  6
Continuous
 62
     7
370
    15
100
AcDbLine
 10
707.2169796708999
 20
885.6550156411
 30
0.0
 11
707.2169796708999
 21
878.2253451625999
 31
0.0
  0
LINE
  5
100
330
1F
100
AcDbEntity
  8
0
  6
Continuous
 62
     7
370
    15
100
AcDbLine
 10
707.2169796708999
 20
878.2253451625999
 30
0.0
 11
707.2169796708999
 21
839.3822623644
 31
0.0
  0
LINE
  5
101
330
1F
100
AcDbEntity
  8
0
  6
Continuous
 62
     7
370
    15
100
AcDbLine
 10
707.2169796708999
 20
997.9520172512
 30
0.0
 11
707.2169796708999
 21
970.3277944460001
 31
0.0
  0
LINE
  5
102
330
1F
100
AcDbEntity
  8
0
  6
Continuous
 62
     7
370
    15
100
AcDbLine
 10
709.2169796708999
 20
962.5426743518
 30
0.0
 11
709.2169796708999
 21
958.5426743517999
 31
0.0
  0
LINE
  5
103
330
1F
100
AcDbEntity
  8
0
  6
Continuous
 62
     7
370
    15
100
AcDbLine
 10
709.2169796708999
 20
966.5426743517999
 30
0.0
 11
709.2169796708999
 21
962.5426743518
 31
0.0
  0
LINE
  5
104
330
1F
100
AcDbEntity
  8
0
  6
Continuous
 62
     7
370
    15
100
AcDbLine
 10
709.2169796708999
 20
924.5426743517999
 30
0.0
 11
709.2169796708999
 21
920.5426743518
 31
0.0
  0
LINE
  5
105
330
1F
100
AcDbEntity
  8
0
  6
Continuous
 62
     7
370
    15
100
AcDbLine
 10
709.2169796708999
 20
928.5426743518
 30
0.0
 11
709.2169796708999
 21
924.5426743517999
 31
0.0
  0
LINE
  5
106
330
1F
100
AcDbEntity
  8
0
  6
Continuous
 62
     7
370
    15
100
AcDbLine
 10
707.2169796708999
 20
1000.4723800937
 30
0.0
 11
707.2169796708999
 21
997.9520172512
 31
0.0
  0
LINE
  5
107
330
1F
100
AcDbEntity
  8
0
  6
Continuous
 62
     7
370
    15
100
AcDbLine
 10
707.2169796708999
 20
1009.7030863392
 30
0.0
 11
707.2169796708999
 21
1000.4723800937
 31
0.0
  0
LINE
  5
108
330
1F
100
AcDbEntity
  8
0
  6
Continuous
 62
     7
370
    15
100
AcDbLine
 10
709.2169796708999
 20
994.5426743518
 30
0.0
 11
709.2169796708999
 21
990.5426743517999
 31
0.0
  0
LINE
  5
109
330
1F
100
AcDbEntity
  8
0
  6
Continuous
 62
     7
370
    15
100
AcDbLine
 10
709.2169796708999
 20
998.5426743517999
 30
0.0
 11
709.2169796708999
 21
994.5426743518
 31
0.0
  0
LINE
  5
10A
330
1F
100
AcDbEntity
  8
0
  6
Continuous
 62
     7
370
    15
100
AcDbLine
 10
622.8169780258
 20
946.5426742325998
 30
0.0
 11
621.2169807437
 21
946.5426742325998
 31
0.0
  0
LINE
  5
10B
330
1F
100
AcDbEntity
  8
0
  6
Continuous
 62
     7
370
    15
100
AcDbLine
 10
622.8169780258
 20
946.5426742325998
 30
0.0
 11
622.8169780258
 21
938.0426747019999
 31
0.0
  0
LINE
  5
10C
330
1F
100
AcDbEntity
  8
0
  6
Continuous
 62
     7
370
    15
100
AcDbLine
 10
621.2169807437
 20
946.5426742325998
 30
0.0
 11
621.2169807437
 21
938.0426747019999
 31
0.0
  0
LINE
  5
10D
330
1F
100
AcDbEntity
  8
0
  6
Continuous
 62
     7
370
    15
100
AcDbLine
 10
622.8169780258
 20
938.0426747019999
 30
0.0
 11
622.8169780258
 21
911.0426740016
 31
0.0
  0
LINE
  5
10E
330
1F
100
AcDbEntity
  8
0
  6
Continuous
 62
     7
370
    15
100
AcDbLine
 10
621.2169807437
 20
938.0426747019999
 30
0.0
 11
621.2169807437
 21
911.0426740016
 31
0.0
  0
LINE
  5
10F
330
1F
100
AcDbEntity
  8
0
  6
Continuous
 62
     7
370
    15
100
AcDbLine
 10
622.8169780258
 20
902.5426744710001
 30
0.0
 11
621.2169807437
 21
902.5426744710001
 31
0.0
  0
LINE
  5
110
330
1F
100
AcDbEntity
  8
0
  6
Continuous
 62
     7
370
    15
100
AcDbLine
 10
622.8169780258
 20
911.0426740016
 30
0.0
 11
622.8169780258
 21
902.5426744710001
 31
0.0
  0
LINE
  5
111
330
1F
100
AcDbEntity
  8
0
  6
Continuous
 62
     7
370
    15
100
AcDbLine
 10
621.2169807437
 20
911.0426740016
 30
0.0
 11
621.2169807437
 21
902.5426744710001
 31
0.0
  0
LINE
  5
112
330
1F
100
AcDbEntity
  8
0
  6
Continuous
 62
     7
370
    15
100
AcDbLine
 10
645.8169796708999
 20
924.5426743517999
 30
0.0
 11
645.8169796708999
 21
922.0426743518
 31
0.0
  0
LINE
  5
113
330
1F
100
AcDbEntity
  8
0
  6
Continuous
 62
     7
370
    15
100
AcDbLine
 10
645.8169796708999
 20
927.0426743517999
 30
0.0
 11
645.8169796708999
 21
924.5426743517999
 31
0.0
  0
LINE
  5
114
330
1F
100
AcDbEntity
  8
0
  6
Continuous
 62
     7
370
    15
100
AcDbLine
 10
621.2169807437
 20
938.0426747019999
 30
0.0
 11
621.2169807437
 21
911.0426740016
 31
0.0
  0
LINE
  5
115
330
1F
100
AcDbEntity
  8
0
  6
Continuous
 62
     7
370
    15
100
AcDbLine
 10
587.8169797394
 20
911.0426740016
 30
0.0
 11
586.2169805946999
 21
911.0426740016
 31
0.0
  0
LINE
  5
116
330
1F
100
AcDbEntity
  8
0
  6
Continuous
 62
     7
370
    15
100
AcDbLine
 10
587.8169797394
 20
938.0426747019999
 30
0.0
 11
587.8169797394
 21
911.0426740016
 31
0.0
  0
LINE
  5
117
330
1F
100
AcDbEntity
  8
0
  6
Continuous
 62
     7
370
    15
100
AcDbLine
 10
586.2169805946999
 20
938.0426747019999
 30
0.0
 11
587.8169797394
 21
938.0426747019999
 31
0.0
  0
LINE
  5
118
330
1F
100
AcDbEntity
  8
0
  6
Continuous
 62
     7
370
    15
100
AcDbLine
 10
586.2169805946999
 20
938.0426747019999
 30
0.0
 11
586.2169805946999
 21
911.0426740016
 31
0.0
  0
LINE
  5
119
330
1F
100
AcDbEntity
  8
0
  6
Continuous
 62
     7
370
     0
100
AcDbLine
 10
565.9883258220999
 20
1034.3734677735
 30
0.0
 11
565.9883258220999
 21
814.7118809301
 31
0.0
  0
LINE
  5
11A
330
1F
100
AcDbEntity
  8
0
  6
Continuous
 62
     7
370
     0
100
AcDbLine
 10
564.0964489883
 20
816.5916959557
 30
0.0
 11
564.0964489883
 21
1032.4936527479
 31
0.0
  0
ARC
  5
11B
330
1F
100
AcDbEntity
  8
0
  6
PHANTOM
 62
     7
370
     0
100
AcDbCircle
 10
572.7192670827999
 20
978.3123510038
 30
0.0
 40
3.575994741934081
100
AcDbArc
 50
191.6531498598
 51
276.8724747423
  0
LINE
  5
11C
330
1F
100
AcDbEntity
  8
0
  6
PHANTOM
 62
     7
370
     0
100
AcDbLine
 10
573.1471700451
 20
974.7620513724999
 30
0.0
 11
573.1471700451
 21
960.6684244959
 31
0.0
  0
LINE
  5
11D
330
1F
100
AcDbEntity
  8
0
  6
PHANTOM
 62
     7
370
     0
100
AcDbLine
 10
569.2169796708999
 20
960.6684244959
 30
0.0
 11
573.1471700451
 21
960.6684244959
 31
0.0
  0
LINE
  5
11E
330
1F
100
AcDbEntity
  8
0
  6
Continuous
 62
     7
370
     0
100
AcDbLine
 10
573.1471700451
 20
960.6684244959
 30
0.0
 11
573.147170249
 21
927.0426742958999
 31
0.0
  0
LINE
  5
11F
330
1F
100
AcDbEntity
  8
0
  6
Continuous
 62
     7
370
     0
100
AcDbLine
 10
573.147170249
 20
922.0426744077
 30
0.0
 11
573.1471700451
 21
885.6550156411
 31
0.0
  0
LINE
  5
120
330
1F
100
AcDbEntity
  8
0
  6
PHANTOM
 62
     7
370
     0
100
AcDbLine
 10
569.2169796708999
 20
885.6550156411
 30
0.0
 11
573.1471700451
 21
885.6550156411
 31
0.0
  0
LINE
  5
121
330
1F
100
AcDbEntity
  8
0
  6
PHANTOM
 62
     7
370
     0
100
AcDbLine
 10
573.1471700451
 20
885.6550156411
 30
0.0
 11
573.1471700451
 21
874.8146602058
 31
0.0
  0
LWPOLYLINE
  5
122
330
1F
100
AcDbEntity
  8
0
  6
PHANTOM
 62
     7
370
     0
100
AcDbPolyline
 90
       24
 70
   128
 43
0.0
 10
569.2169796708999
 20
872.6394600461999
 10
569.2260986031
 20
872.7862737367999
 10
569.2534138212001
 20
872.9324206004999
 10
569.2988007827999
 20
873.0772338102999
 10
569.3620525595999
 20
873.2200502645
 10
569.4428807361
 20
873.3602180371999
 10
569.5409167708
 20
873.4971001039999
 10
569.6557137159
 20
873.6300706158999
 10
569.7867481537
 20
873.7585260760001
 10
569.9334225533999
 20
873.8818778882999
 10
570.0950682545999
 20
873.9995672594
 10
570.2709482317
 20
874.1110502969
 10
570.4602604998
 20
874.2158278117999
 10
570.6621418972999
 20
874.3134192417999
 10
570.8756720448
 20
874.4033738266001
 10
571.0998773608
 20
874.4852892349999
 10
571.3337354860999
 20
874.5587892125998
 10
571.5761801726999
 20
874.623534758
 10
571.8261059407
 20
874.6792352985
 10
572.0823735498
 20
874.7256375144999
 10
572.3438141901
 20
874.7625253389999
 10
572.6092362343999
 20
874.7897348592999
 10
572.8774289633999
 20
874.8071394155999
 10
573.147170249
 20
874.8146607766999
  0
LINE
  5
123
330
1F
100
AcDbEntity
  8
0
  6
Continuous
 62
     7
370
     0
100
AcDbLine
 10
573.1471700451
 20
874.8146602058
 30
0.0
 11
573.1471700451
 21
833.1112760799999
 31
0.0
  0
LINE
  5
124
330
1F
100
AcDbEntity
  8
0
  6
PHANTOM
 62
     7
370
     0
100
AcDbLine
 10
703.2867892966001
 20
960.6684244959
 30
0.0
 11
703.2867892966001
 21
973.1557907875998
 31
0.0
  0
LINE
  5
125
330
1F
100
AcDbEntity
  8
0
  6
Continuous
 62
     7
370
     0
100
AcDbLine
 10
703.2867892966001
 20
960.6684244959
 30
0.0
 11
573.1471700451
 21
960.6684244959
 31
0.0
  0
LINE
  5
126
330
1F
100
AcDbEntity
  8
0
  6
Continuous
 62
     7
370
     0
100
AcDbLine
 10
703.2867892966001
 20
973.1557907875998
 30
0.0
 11
573.1471700451
 21
974.7620513724999
 31
0.0
  0
LINE
  5
127
330
1F
100
AcDbEntity
  8
0
  6
Continuous
 62
     7
370
     0
100
AcDbLine
 10
703.2867892966001
 20
885.6550156411
 30
0.0
 11
703.2867892966001
 21
960.6684244959
 31
0.0
  0
LINE
  5
128
330
1F
100
AcDbEntity
  8
0
  6
Continuous
 62
     7
370
     0
100
AcDbLine
 10
703.2867892966001
 20
885.6550156411
 30
0.0
 11
573.1471700451
 21
885.6550156411
 31
0.0
  0
LINE
  5
129
330
1F
100
AcDbEntity
  8
0
  6
PHANTOM
 62
     7
370
     0
100
AcDbLine
 10
703.2867892966001
 20
876.0501431524001
 30
0.0
 11
703.2867892966001
 21
885.6550156411
 31
0.0
  0
LINE
  5
12A
330
1F
100
AcDbEntity
  8
0
  6
Continuous
 62
     7
370
     0
100
AcDbLine
 10
703.2867892966001
 20
876.0501431524001
 30
0.0
 11
573.1471700451
 21
874.8146602058
 31
0.0
  0
LINE
  5
12B
330
1F
100
AcDbEntity
  8
0
  6
PHANTOM
 62
     7
370
     0
100
AcDbLine
 10
703.2867892966001
 20
960.6684244959
 30
0.0
 11
707.2169796708999
 21
960.6684244959
 31
0.0
  0
ARC
  5
12C
330
1F
100
AcDbEntity
  8
0
  6
PHANTOM
 62
     7
370
     0
100
AcDbCircle
 10
703.7147024753998
 20
969.6055061271
 30
0.0
 40
3.575978741240518
100
AcDbArc
 50
11.6529914202
 51
96.8725760098
  0
LINE
  5
12D
330
1F
100
AcDbEntity
  8
0
  6
PHANTOM
 62
     7
370
     0
100
AcDbLine
 10
703.2867892966001
 20
885.6550156411
 30
0.0
 11
707.2169796708999
 21
885.6550156411
 31
0.0
  0
LWPOLYLINE
  5
12E
330
1F
100
AcDbEntity
  8
0
  6
PHANTOM
 62
     7
370
     0
100
AcDbPolyline
 90
       24
 70
   128
 43
0.0
 10
703.2867949489
 20
876.0501421282999
 10
703.5565357688
 20
876.0576634895
 10
703.8247268680001
 20
876.0750680457
 10
704.0901463511999
 20
876.1022775661
 10
704.3515872242998
 20
876.1391653905999
 10
704.6078573946
 20
876.1855676066
 10
704.8577796700999
 20
876.2412681471001
 10
705.1002215627001
 20
876.3060136925
 10
705.3340803864999
 20
876.3795136701
 10
705.5582832577999
 20
876.4614290785001
 10
705.7718168977
 20
876.5513836633001
 10
705.9736978296
 20
876.6489750932001
 10
706.1630170825999
 20
876.7537526082001
 10
706.3388954880999
 20
876.8652393709
 10
706.5005432847999
 20
876.9829250167999
 10
706.6472154144
 20
877.1062768291001
 10
706.7782413247999
 20
877.2347322892001
 10
706.8930398705999
 20
877.3677028011
 10
706.9910746100999
 20
877.5045848677999
 10
707.0719134096
 20
877.6447563658999
 10
707.1351539376999
 20
877.7875690948
 10
707.1805428747
 20
877.9323823044999
 10
707.2078567031
 20
878.0785291682001
 10
707.2169762138001
 20
878.2253465842
  0
LINE
  5
12F
330
1F
100
AcDbEntity
  8
0
  6
Continuous
 62
     7
370
     0
100
AcDbLine
 10
573.1471700451
 20
1002.3862741776
 30
0.0
 11
573.1471700451
 21
974.7620513724999
 31
0.0
  0
LWPOLYLINE
  5
130
330
1F
100
AcDbEntity
  8
0
  6
PHANTOM
 62
     7
370
     0
100
AcDbPolyline
 90
       24
 70
   128
 43
0.0
 10
573.147170249
 20
1002.3862733732
 10
572.8774289633999
 20
1002.3960559856
 10
572.6092362343999
 20
1002.4186833988
 10
572.3438141901
 20
1002.4540513049
 10
572.0823735498
 20
1002.5020106922
 10
571.8261059407
 20
1002.5623380433
 10
571.5761801726999
 20
1002.6347576867
 10
571.3337354860999
 20
1002.7189343463
 10
571.0998773608
 20
1002.8144880425
 10
570.8756720448
 20
1002.9209866415
 10
570.6621418972999
 20
1003.0379458557
 10
570.4602604998
 20
1003.1648217927
 10
570.2709482317
 20
1003.3010407578
 10
570.0950682545999
 20
1003.4459843527
 10
569.9334225533999
 20
1003.5989894758
 10
569.7867481537
 20
1003.7593632232
 10
569.6557137159
 20
1003.9263679873
 10
569.5409167708
 20
1004.0992438089
 10
569.4428807361
 20
1004.277208377
 10
569.3620525595999
 20
1004.4594421278
 10
569.2988007827999
 20
1004.6451180469
 10
569.2534138212001
 20
1004.833386768
 10
569.2260986031
 20
1005.0233914744
 10
569.2169796708999
 20
1005.2142678987
  0
LINE
  5
131
330
1F
100
AcDbEntity
  8
0
  6
Continuous
 62
     7
370
     0
100
AcDbLine
 10
703.2867892966001
 20
835.3828715837
 30
0.0
 11
703.2867892966001
 21
876.0501431524001
 31
0.0
  0
LINE
  5
132
330
1F
100
AcDbEntity
  8
0
  6
Continuous
 62
     7
370
     0
100
AcDbLine
 10
703.2867892966001
 20
973.1557907875998
 30
0.0
 11
703.2867892966001
 21
1000.7800135928
 31
0.0
  0
LINE
  5
133
330
1F
100
AcDbEntity
  8
0
  6
Continuous
 62
     7
370
     0
100
AcDbLine
 10
703.2867892966001
 20
1000.7800135928
 30
0.0
 11
573.1471700451
 21
1002.3862741776
 31
0.0
  0
ARC
  5
134
330
1F
100
AcDbEntity
  8
0
  6
PHANTOM
 62
     7
370
     0
100
AcDbCircle
 10
703.7147046205999
 20
997.2297287644
 30
0.0
 40
3.575976038060205
100
AcDbArc
 50
11.6529515796
 51
96.87261585040001
  0
LINE
  5
135
330
1F
100
AcDbEntity
  8
0
  6
PHANTOM
 62
     7
370
     0
100
AcDbLine
 10
573.1471700451
 20
1006.063641716
 30
0.0
 11
573.1471700451
 21
1002.3862741776
 31
0.0
  0
ARC
  5
136
330
1F
100
AcDbEntity
  8
0
  6
PHANTOM
 62
     7
370
     0
100
AcDbCircle
 10
572.994201319
 20
1009.8438442739
 30
0.0
 40
3.783296475750478
100
AcDbArc
 50
183.2473384255
 51
272.3172553176
  0
LINE
  5
137
330
1F
100
AcDbEntity
  8
0
  6
PHANTOM
 62
     7
370
     0
100
AcDbLine
 10
703.2867892966001
 20
1000.7800135928
 30
0.0
 11
703.2867892966001
 21
1004.0382689619
 31
0.0
  0
LINE
  5
138
330
1F
100
AcDbEntity
  8
0
  6
Continuous
 62
     7
370
     0
100
AcDbLine
 10
703.2867892966001
 20
1004.0382689619
 30
0.0
 11
573.1471700451
 21
1006.063641716
 31
0.0
  0
ARC
  5
139
330
1F
100
AcDbEntity
  8
0
  6
PHANTOM
 62
     7
370
     0
100
AcDbCircle
 10
703.4210822313
 20
1000.2374847455
 30
0.0
 40
3.80315505565
100
AcDbArc
 50
3.541075145799999
 51
92.02350261499999
  0
LINE
  5
13A
330
1F
100
AcDbEntity
  8
0
  6
PHANTOM
 62
     7
370
     0
100
AcDbLine
 10
573.1471700451
 20
1015.9740726236
 30
0.0
 11
573.1471700451
 21
1006.063641716
 31
0.0
  0
LINE
  5
13B
330
1F
100
AcDbEntity
  8
0
  6
PHANTOM
 62
     7
370
     0
100
AcDbLine
 10
703.2867892966001
 20
1004.0382689619
 30
0.0
 11
703.2867892966001
 21
1013.7024771199
 31
0.0
  0
DIMENSION
  5
13C
330
1F
100
AcDbEntity
  8
WAKU
 62
     7
100
AcDbDimension
  2
*D7
 10
473.7670895012
 20
849.5426743517999
 30
0.0
 11
473.7670895012
 21
924.5426743517999
 31
0.0
 70
   160
  1
%%c<>
 42
150.0
  3
SLDDIMSTYLE1
100
AcDbAlignedDimension
 13
553.4904802843
 23
999.5426743517999
 33
0.0
 14
557.9947881407999
 24
849.5426743517999
 34
0.0
 50
90.0
100
AcDbRotatedDimension
1001
ACAD
1000
DSTYLE
1002
{
1070
    77
1070
     3
1070
   143
1040
0.0393700787
1070
    41
1040
8.0
1070
    44
1040
4.0
1070
    42
1040
4.0
1070
   147
1040
6.096
1070
    73
1070
     0
1070
    74
1070
     0
1070
   140
1040
14.1111111111
1070
   284
1070
    12
1070
    78
1070
    12
1002
}
  0
DIMENSION
  5
159
330
1F
100
AcDbEntity
  8
WAKU
 62
     7
100
AcDbDimension
  2
*D8
 10
707.2169796708999
 20
784.7210420798
 30
0.0
 11
638.2169796708999
 21
784.7210420798
 31
0.0
 70
   160
 42
138.0
  3
SLDDIMSTYLE1
100
AcDbAlignedDimension
 13
569.2169796708999
 23
817.6426743517998
 33
0.0
 14
707.2169796708999
 24
839.3822623644
 34
0.0
100
AcDbRotatedDimension
1001
ACAD
1000
DSTYLE
1002
{
1070
    77
1070
     3
1070
   143
1040
0.0393700787
1070
    41
1040
8.0
1070
    44
1040
4.0
1070
    42
1040
4.0
1070
   147
1040
6.096
1070
    73
1070
     0
1070
    74
1070
     0
1070
   140
1040
14.1111111111
1070
   284
1070
    12
1070
    78
1070
    12
1002
}
  0
DIMENSION
  5
173
330
1F
100
AcDbEntity
  8
WAKU
 62
     7
100
AcDbDimension
  2
*D9
 10
767.7631364955999
 20
1015.9740726236
 30
0.0
 11
767.7631364955999
 21
924.5426743517999
 31
0.0
 70
   160
 42
182.8627965437
  3
SLDDIMSTYLE1
100
AcDbAlignedDimension
 13
573.1471700451
 23
833.1112760799999
 33
0.0
 14
573.1471700451
 24
1015.9740726236
 34
0.0
 50
90.0
100
AcDbRotatedDimension
1001
ACAD
1000
DSTYLE
1002
{
1070
    77
1070
     3
1070
   143
1040
0.0393700787
1070
    41
1040
8.0
1070
    44
1040
4.0
1070
    42
1040
4.0
1070
   147
1040
6.096
1070
    73
1070
     0
1070
    74
1070
     0
1070
   140
1040
14.1111111111
1070
   284
1070
    12
1070
    78
1070
    12
1002
}
  0
DIMENSION
  5
18E
330
1F
100
AcDbEntity
  8
WAKU
 62
     7
100
AcDbDimension
  2
*D10
 10
563.2169796708999
 20
924.5426743517999
 30
0.0
 11
474.2024978276999
 21
1037.7644812702
 31
0.0
 70
   164
  1
<>
 42
300.0
  3
SLDDIMSTYLE2
100
AcDbRadialDimension
 15
528.2165693847999
 25
990.874953672
 35
0.0
 40
0.0
1001
ACAD
1000
DSTYLE
1002
{
1070
    77
1070
     0
1070
   143
1040
0.0393700787
1070
    41
1040
8.0
1070
    44
1040
4.0
1070
    42
1040
4.0
1070
   147
1040
6.096
1070
    73
1070
     1
1070
    74
1070
     1
1070
   140
1040
14.1111111111
1070
   284
1070
    12
1070
    78
1070
    12
1002
}
  0
DIMENSION
  5
1A8
330
1F
100
AcDbEntity
  8
WAKU
 62
     7
100
AcDbDimension
  2
*D11
 10
707.2169796708999
 20
742.4367473379
 30
0.0
 11
597.7169796708999
 21
742.4367473379
 31
0.0
 70
   160
 42
219.0
  3
SLDDIMSTYLE1
100
AcDbAlignedDimension
 13
488.2169796708999
 23
924.5426743517999
 33
0.0
 14
707.2169796708999
 24
839.3822623644
 34
0.0
100
AcDbRotatedDimension
1001
ACAD
1000
DSTYLE
1002
{
1070
    77
1070
     3
1070
   143
1040
0.0393700787
1070
    41
1040
8.0
1070
    44
1040
4.0
1070
    42
1040
4.0
1070
   147
1040
6.096
1070
    73
1070
     0
1070
    74
1070
     0
1070
   140
1040
14.1111111111
1070
   284
1070
    12
1070
    78
1070
    12
1002
}
  0
CIRCLE
  5
1C2
330
1F
100
AcDbEntity
  8
WAKU
  6
PHANTOM
 62
     7
370
     0
100
AcDbCircle
 10
292.1380660146
 20
614.9926450751999
 30
0.0
 40
102.0
  0
CIRCLE
  5
1C3
330
1F
100
AcDbEntity
  8
0
  6
Continuous
 62
     7
370
    15
100
AcDbCircle
 10
292.1380660146
 20
684.9926450752
 30
0.0
 40
2.399999999999977
  0
CIRCLE
  5
1C4
330
1F
100
AcDbEntity
  8
0
  6
Continuous
 62
     7
370
    15
100
AcDbCircle
 10
292.1380660146
 20
684.9926450752
 30
0.0
 40
4.0
  0
CIRCLE
  5
1C5
330
1F
100
AcDbEntity
  8
0
  6
Continuous
 62
     7
370
    15
100
AcDbCircle
 10
357.1380660146
 20
652.9926450752
 30
0.0
 40
2.399999999999977
  0
CIRCLE
  5
1C6
330
1F
100
AcDbEntity
  8
0
  6
Continuous
 62
     7
370
    15
100
AcDbCircle
 10
357.1380660146
 20
652.9926450752
 30
0.0
 40
4.0
  0
CIRCLE
  5
1C7
330
1F
100
AcDbEntity
  8
0
  6
Continuous
 62
     7
370
    15
100
AcDbCircle
 10
227.1380660146
 20
652.9926450752
 30
0.0
 40
2.399999999999977
  0
CIRCLE
  5
1C8
330
1F
100
AcDbEntity
  8
0
  6
Continuous
 62
     7
370
    15
100
AcDbCircle
 10
227.1380660146
 20
652.9926450752
 30
0.0
 40
4.000000000000028
  0
CIRCLE
  5
1C9
330
1F
100
AcDbEntity
  8
0
  6
Continuous
 62
     7
370
    15
100
AcDbCircle
 10
227.1380660146
 20
614.9926450751999
 30
0.0
 40
2.399999999999977
  0
CIRCLE
  5
1CA
330
1F
100
AcDbEntity
  8
0
  6
Continuous
 62
     7
370
    15
100
AcDbCircle
 10
227.1380660146
 20
614.9926450751999
 30
0.0
 40
4.0
  0
CIRCLE
  5
1CB
330
1F
100
AcDbEntity
  8
0
  6
Continuous
 62
     7
370
    15
100
AcDbCircle
 10
357.1380660146
 20
614.9926450751999
 30
0.0
 40
2.399999999999977
  0
CIRCLE
  5
1CC
330
1F
100
AcDbEntity
  8
0
  6
Continuous
 62
     7
370
    15
100
AcDbCircle
 10
357.1380660146
 20
614.9926450751999
 30
0.0
 40
4.0
  0
CIRCLE
  5
1CD
330
1F
100
AcDbEntity
  8
0
  6
Continuous
 62
     7
370
    15
100
AcDbCircle
 10
292.1380660146
 20
546.9926450752
 30
0.0
 40
13.5
  0
CIRCLE
  5
1CE
330
1F
100
AcDbEntity
  8
0
  6
Continuous
 62
     7
370
    15
100
AcDbCircle
 10
292.1380660146
 20
614.9926450751999
 30
0.0
 40
4.5
  0
CIRCLE
  5
1CF
330
1F
100
AcDbEntity
  8
0
  6
Continuous
 62
     7
370
    15
100
AcDbCircle
 10
292.1380660146
 20
614.9926450751999
 30
0.0
 40
3.0
  0
LINE
  5
1D0
330
1F
100
AcDbEntity
  8
0
  6
Continuous
 62
     7
370
    15
100
AcDbLine
 10
371.160585305
 20
595.3926448426999
 30
0.0
 11
371.160585305
 21
634.5926453076
 31
0.0
  0
LINE
  5
1D1
330
1F
100
AcDbEntity
  8
0
  6
Continuous
 62
     7
370
    15
100
AcDbLine
 10
371.2024724691
 20
592.9926451943999
 30
0.0
 11
371.160585305
 21
595.3926448426999
 31
0.0
  0
LINE
  5
1D2
330
1F
100
AcDbEntity
  8
0
  6
Continuous
 62
     7
370
    15
100
AcDbLine
 10
371.2304046958
 20
592.9926451943999
 30
0.0
 11
371.2024724691
 21
592.9926451943999
 31
0.0
  0
LINE
  5
1D3
330
1F
100
AcDbEntity
  8
0
  6
Continuous
 62
     7
370
    15
100
AcDbLine
 10
371.2304046958
 20
636.9926449559
 30
0.0
 11
371.2304046958
 21
592.9926451943999
 31
0.0
  0
LINE
  5
1D4
330
1F
100
AcDbEntity
  8
0
  6
Continuous
 62
     7
370
    15
100
AcDbLine
 10
371.2024724691
 20
636.9926449559
 30
0.0
 11
371.2304046958
 21
636.9926449559
 31
0.0
  0
LINE
  5
1D5
330
1F
100
AcDbEntity
  8
0
  6
Continuous
 62
     7
370
    15
100
AcDbLine
 10
371.160585305
 20
634.5926453076
 30
0.0
 11
371.2024724691
 21
636.9926449559
 31
0.0
  0
LINE
  5
1D6
330
1F
100
AcDbEntity
  8
0
  6
Continuous
 62
     7
370
    15
100
AcDbLine
 10
213.07365956
 20
592.9926451943999
 30
0.0
 11
213.0457273334
 21
592.9926451943999
 31
0.0
  0
LINE
  5
1D7
330
1F
100
AcDbEntity
  8
0
  6
Continuous
 62
     7
370
    15
100
AcDbLine
 10
213.1155467241
 20
595.3926448426999
 30
0.0
 11
213.07365956
 21
592.9926451943999
 31
0.0
  0
LINE
  5
1D8
330
1F
100
AcDbEntity
  8
0
  6
Continuous
 62
     7
370
    15
100
AcDbLine
 10
213.1155467241
 20
634.5926453076
 30
0.0
 11
213.1155467241
 21
595.3926448426999
 31
0.0
  0
LINE
  5
1D9
330
1F
100
AcDbEntity
  8
0
  6
Continuous
 62
     7
370
    15
100
AcDbLine
 10
213.07365956
 20
636.9926449559
 30
0.0
 11
213.1155467241
 21
634.5926453076
 31
0.0
  0
LINE
  5
1DA
330
1F
100
AcDbEntity
  8
0
  6
Continuous
 62
     7
370
    15
100
AcDbLine
 10
213.0457273334
 20
636.9926449559
 30
0.0
 11
213.07365956
 21
636.9926449559
 31
0.0
  0
LINE
  5
1DB
330
1F
100
AcDbEntity
  8
0
  6
Continuous
 62
     7
370
    15
100
AcDbLine
 10
213.0457273334
 20
592.9926451943999
 30
0.0
 11
213.0457273334
 21
636.9926449559
 31
0.0
  0
ARC
  5
1DC
330
1F
100
AcDbEntity
  8
0
  6
Continuous
 62
     7
370
    15
100
AcDbCircle
 10
292.1380660146
 20
614.9926450751999
 30
0.0
 40
108.5
100
AcDbArc
 50
187.1474916058
 51
352.8525083942
  0
ARC
  5
1DD
330
1F
100
AcDbEntity
  8
0
  6
Continuous
 62
     7
370
    15
100
AcDbCircle
 10
292.1380660146
 20
614.9926450751999
 30
0.0
 40
108.5
100
AcDbArc
 50
7.147491605800001
 51
172.8525083942
  0
CIRCLE
  5
1DE
330
1F
100
AcDbEntity
  8
0
  6
Continuous
 62
     7
370
    15
100
AcDbCircle
 10
292.1380660146
 20
614.9926450751999
 30
0.0
 40
110.0
  0
ARC
  5
1DF
330
1F
100
AcDbEntity
  8
0
  6
Continuous
 62
     7
370
    15
100
AcDbCircle
 10
292.1380660146
 20
614.9926450751999
 30
0.0
 40
106.9
100
AcDbArc
 50
90.0
 51
172.7449589101
  0
ARC
  5
1E0
330
1F
100
AcDbEntity
  8
0
  6
Continuous
 62
     7
370
    15
100
AcDbCircle
 10
292.1380660146
 20
614.9926450751999
 30
0.0
 40
106.9000000000001
100
AcDbArc
 50
187.2550410899
 51
352.7449589101
  0
ARC
  5
1E1
330
1F
100
AcDbEntity
  8
0
  6
Continuous
 62
     7
370
    15
100
AcDbCircle
 10
292.1380660146
 20
614.9926450751999
 30
0.0
 40
106.9000000000001
100
AcDbArc
 50
7.2550410899
 51
90.0
  0
CIRCLE
  5
1E2
330
1F
100
AcDbEntity
  8
0
  6
Continuous
 62
     7
370
    15
100
AcDbCircle
 10
198.1380660146
 20
614.9926450751999
 30
0.0
 40
2.5
  0
LINE
  5
1E3
330
1F
100
AcDbEntity
  8
0
  6
Continuous
 62
     7
370
    15
100
AcDbLine
 10
192.1380645245
 20
628.4926454253
 30
0.0
 11
192.1380645245
 21
601.4926447249999
 31
0.0
  0
LINE
  5
1E4
330
1F
100
AcDbEntity
  8
0
  6
Continuous
 62
     7
370
    15
100
AcDbLine
 10
204.6380675047
 20
636.9926449559
 30
0.0
 11
201.1380678623
 21
636.9926449559
 31
0.0
  0
LINE
  5
1E5
330
1F
100
AcDbEntity
  8
0
  6
Continuous
 62
     7
370
    15
100
AcDbLine
 10
201.1380678623
 20
592.9926451943999
 30
0.0
 11
204.6380675047
 21
592.9926451943999
 31
0.0
  0
LINE
  5
1E6
330
1F
100
AcDbEntity
  8
0
  6
Continuous
 62
     7
370
    15
100
AcDbLine
 10
192.1380645245
 20
601.4926447249999
 30
0.0
 11
201.1380678623
 21
592.9926451943999
 31
0.0
  0
CIRCLE
  5
1E7
330
1F
100
AcDbEntity
  8
0
  6
Continuous
 62
     7
370
    15
100
AcDbCircle
 10
198.1380660146
 20
614.9926450751999
 30
0.0
 40
5.5
  0
LINE
  5
1E8
330
1F
100
AcDbEntity
  8
0
  6
Continuous
 62
     7
370
    15
100
AcDbLine
 10
201.1380678623
 20
636.9926449559
 30
0.0
 11
192.1380645245
 21
628.4926454253
 31
0.0
  0
LINE
  5
1E9
330
1F
100
AcDbEntity
  8
0
  6
Continuous
 62
     7
370
    15
100
AcDbLine
 10
204.6380675047
 20
592.9926451943999
 30
0.0
 11
204.6380675047
 21
636.9926449559
 31
0.0
  0
CIRCLE
  5
1EA
330
1F
100
AcDbEntity
  8
0
  6
Continuous
 62
     7
370
    15
100
AcDbCircle
 10
198.1380660146
 20
614.9926450751999
 30
0.0
 40
3.5
  0
LINE
  5
1EB
330
1F
100
AcDbEntity
  8
0
  6
Continuous
 62
     7
370
    15
100
AcDbLine
 10
183.1380686372
 20
601.4926447249999
 30
0.0
 11
192.1380645245
 21
601.4926447249999
 31
0.0
  0
LINE
  5
1EC
330
1F
100
AcDbEntity
  8
0
  6
Continuous
 62
     7
370
    15
100
AcDbLine
 10
183.1380686372
 20
628.4926454253
 30
0.0
 11
183.1380686372
 21
601.4926447249999
 31
0.0
  0
LINE
  5
1ED
330
1F
100
AcDbEntity
  8
0
  6
Continuous
 62
     7
370
    15
100
AcDbLine
 10
183.1380686372
 20
628.4926454253
 30
0.0
 11
192.1380645245
 21
628.4926454253
 31
0.0
  0
LINE
  5
1EE
330
1F
100
AcDbEntity
  8
0
  6
Continuous
 62
     7
370
    15
100
AcDbLine
 10
204.6380675047
 20
601.4926447249999
 30
0.0
 11
206.1919084399
 21
601.4926447249999
 31
0.0
  0
LINE
  5
1EF
330
1F
100
AcDbEntity
  8
0
  6
Continuous
 62
     7
370
    15
100
AcDbLine
 10
204.6380675047
 20
628.4926454253
 30
0.0
 11
206.1919084399
 21
628.4926454253
 31
0.0
  0
LINE
  5
1F0
330
1F
100
AcDbEntity
  8
0
  6
Continuous
 62
     7
370
    15
100
AcDbLine
 10
206.1919084399
 20
628.4926454253
 30
0.0
 11
206.1919084399
 21
601.4926447249999
 31
0.0
  0
CIRCLE
  5
1F1
330
1F
100
AcDbEntity
  8
0
  6
Continuous
 62
     7
370
    15
100
AcDbCircle
 10
386.1380660146
 20
614.9926450751999
 30
0.0
 40
2.5
  0
LINE
  5
1F2
330
1F
100
AcDbEntity
  8
0
  6
Continuous
 62
     7
370
    15
100
AcDbLine
 10
383.1380641668
 20
592.9926451943999
 30
0.0
 11
379.6380645245
 21
592.9926451943999
 31
0.0
  0
LINE
  5
1F3
330
1F
100
AcDbEntity
  8
0
  6
Continuous
 62
     7
370
    15
100
AcDbLine
 10
379.6380645245
 20
592.9926451943999
 30
0.0
 11
379.6380645245
 21
636.9926449559
 31
0.0
  0
LINE
  5
1F4
330
1F
100
AcDbEntity
  8
0
  6
Continuous
 62
     7
370
    15
100
AcDbLine
 10
383.1380641668
 20
636.9926449559
 30
0.0
 11
392.1380675047
 21
628.4926454253
 31
0.0
  0
LINE
  5
1F5
330
1F
100
AcDbEntity
  8
0
  6
Continuous
 62
     7
370
    15
100
AcDbLine
 10
392.1380675047
 20
628.4926454253
 30
0.0
 11
392.1380675047
 21
601.4926447249999
 31
0.0
  0
LINE
  5
1F6
330
1F
100
AcDbEntity
  8
0
  6
Continuous
 62
     7
370
    15
100
AcDbLine
 10
392.1380675047
 20
601.4926447249999
 30
0.0
 11
383.1380641668
 21
592.9926451943999
 31
0.0
  0
CIRCLE
  5
1F7
330
1F
100
AcDbEntity
  8
0
  6
Continuous
 62
     7
370
    15
100
AcDbCircle
 10
386.1380660146
 20
614.9926450751999
 30
0.0
 40
5.5
  0
LINE
  5
1F8
330
1F
100
AcDbEntity
  8
0
  6
Continuous
 62
     7
370
    15
100
AcDbLine
 10
379.6380645245
 20
636.9926449559
 30
0.0
 11
383.1380641668
 21
636.9926449559
 31
0.0
  0
CIRCLE
  5
1F9
330
1F
100
AcDbEntity
  8
0
  6
Continuous
 62
     7
370
    15
100
AcDbCircle
 10
386.1380660146
 20
614.9926450751999
 30
0.0
 40
3.5
  0
LINE
  5
1FA
330
1F
100
AcDbEntity
  8
0
  6
Continuous
 62
     7
370
    15
100
AcDbLine
 10
379.6380645245
 20
601.4926447249999
 30
0.0
 11
378.0842235892
 21
601.4926447249999
 31
0.0
  0
LINE
  5
1FB
330
1F
100
AcDbEntity
  8
0
  6
Continuous
 62
     7
370
    15
100
AcDbLine
 10
378.0842235892
 20
628.4926454253
 30
0.0
 11
378.0842235892
 21
601.4926447249999
 31
0.0
  0
LINE
  5
1FC
330
1F
100
AcDbEntity
  8
0
  6
Continuous
 62
     7
370
    15
100
AcDbLine
 10
379.6380645245
 20
628.4926454253
 30
0.0
 11
378.0842235892
 21
628.4926454253
 31
0.0
  0
LINE
  5
1FD
330
1F
100
AcDbEntity
  8
0
  6
Continuous
 62
     7
370
    15
100
AcDbLine
 10
401.1380633919999
 20
628.4926454253
 30
0.0
 11
392.1380675047
 21
628.4926454253
 31
0.0
  0
LINE
  5
1FE
330
1F
100
AcDbEntity
  8
0
  6
Continuous
 62
     7
370
    15
100
AcDbLine
 10
401.1380633919999
 20
628.4926454253
 30
0.0
 11
401.1380633919999
 21
601.4926447249999
 31
0.0
  0
LINE
  5
1FF
330
1F
100
AcDbEntity
  8
0
  6
Continuous
 62
     7
370
    15
100
AcDbLine
 10
401.1380633919999
 20
601.4926447249999
 30
0.0
 11
392.1380675047
 21
601.4926447249999
 31
0.0
  0
ARC
  5
200
330
1F
100
AcDbEntity
  8
0
  6
Continuous
 62
     7
370
     0
100
AcDbCircle
 10
292.1380660146
 20
614.9926450751999
 30
0.0
 40
85.1604119874433
100
AcDbArc
 50
32.9483878876
 51
116.9239902176
  0
LWPOLYLINE
  5
201
330
1F
100
AcDbEntity
  8
0
  6
PHANTOM
 62
     7
370
     0
100
AcDbPolyline
 90
       24
 70
   128
 43
0.0
 10
253.5767442196
 20
690.922353854
 10
253.4545137196
 20
691.1630299589999
 10
253.3328382879
 20
691.4026182792999
 10
253.212276718
 20
691.6400086782999
 10
253.0933766275
 20
691.8741357228999
 10
252.9766781836
 20
692.1039190791
 10
252.8627178281
 20
692.3283156656
 10
252.7520133763
 20
692.5462973021
 10
252.6450677424
 20
692.7568805121
 10
252.5423726647
 20
692.9590967201
 10
252.4443900793
 20
693.152022054
 10
252.3515744715
 20
693.3347922467
 10
252.2643430739
 20
693.5065504812
 10
252.1830944925
 20
693.6665367983001
 10
252.1082012563
 20
693.8140061401
 10
252.0400023668
 20
693.9482879541999
 10
251.9788144737
 20
694.0687787435999
 10
251.9249095231
 20
694.1749197147999
 10
251.8785333841
 20
694.2662340306
 10
251.8399021237
 20
694.3422970078999
 10
251.8091908305
 20
694.4027733706
 10
251.7865410655
 20
694.4473799966
 10
251.7720496863
 20
694.4759082696999
 10
251.7657874733
 20
694.4882389805999
  0
ARC
  5
202
330
1F
100
AcDbEntity
  8
0
  6
Continuous
 62
     7
370
    15
100
AcDbCircle
 10
292.1380660146
 20
614.9926450751999
 30
0.0
 40
89.15980276806882
100
AcDbArc
 50
32.9483878876
 51
116.9239902176
  0
LWPOLYLINE
  5
203
330
1F
100
AcDbEntity
  8
0
  6
PHANTOM
 62
     7
370
     0
100
AcDbPolyline
 90
       24
 70
   128
 43
0.0
 10
363.6013454407
 20
661.3099728427999
 10
363.8278728932
 20
661.4567902587
 10
364.0533647149
 20
661.6029371224
 10
364.2767927258999
 20
661.7477503322
 10
364.497143647
 20
661.8905630611
 10
364.71341165
 20
662.0307345590999
 10
364.9246058076
 20
662.1676166259
 10
365.1297724455
 20
662.3005871378
 10
365.32796534
 20
662.4290425977999
 10
365.5182829707
 20
662.5523944102
 10
365.699868521
 20
662.670080056
 10
365.8718800753
 20
662.7815668188
 10
366.0335427730999
 20
662.8863443336999
 10
366.1841115563
 20
662.9839357637
 10
366.3229084223
 20
663.0738903484999
 10
366.449292621
 20
663.1558057569
 10
366.5626904576
 20
663.2293057344999
 10
366.6625952929
 20
663.2940512799
 10
366.74853774
 20
663.3497518203999
 10
366.8201229184
 20
663.3961540364
 10
366.8770453542
 20
663.4330418608999
 10
366.9190219253
 20
663.4602513812
 10
366.9458738177
 20
663.4776559375
 10
366.9574818223001
 20
663.4851772985999
  0
ARC
  5
204
330
1F
100
AcDbEntity
  8
0
  6
PHANTOM
 62
     7
370
     0
100
AcDbCircle
 10
259.7622888197
 20
678.7426180244
 30
0.0
 40
13.66041198744331
100
AcDbArc
 50
116.9239902176
 51
135.0
  0
ARC
  5
205
330
1F
100
AcDbEntity
  8
0
  6
PHANTOM
 62
     7
370
     0
100
AcDbCircle
 10
352.1380660146
 20
653.8803037859
 30
0.0
 40
13.66041198744324
100
AcDbArc
 50
360.0
 51
32.9483878876
  0
LINE
  5
206
330
1F
100
AcDbEntity
  8
0
  6
Continuous
 62
     7
370
     0
100
AcDbLine
 10
365.798478002
 20
576.1049863644999
 30
0.0
 11
365.798478002
 21
653.8803037859
 31
0.0
  0
ARC
  5
207
330
1F
100
AcDbEntity
  8
0
  6
PHANTOM
 62
     7
370
     0
100
AcDbCircle
 10
352.1380660146
 20
576.1049863644999
 30
0.0
 40
13.66041198744324
100
AcDbArc
 50
327.0516121124
 51
0.0
  0
ARC
  5
208
330
1F
100
AcDbEntity
  8
0
  6
Continuous
 62
     7
370
     0
100
AcDbCircle
 10
292.1380660146
 20
614.9926450751999
 30
0.0
 40
85.16041198744323
100
AcDbArc
 50
212.9483878876
 51
327.0516121124
  0
ARC
  5
209
330
1F
100
AcDbEntity
  8
0
  6
PHANTOM
 62
     7
370
     0
100
AcDbCircle
 10
232.1380660146
 20
576.1049863644999
 30
0.0
 40
13.66041198744326
100
AcDbArc
 50
180.0
 51
212.9483878876
  0
LINE
  5
20A
330
1F
100
AcDbEntity
  8
0
  6
Continuous
 62
     7
370
     0
100
AcDbLine
 10
218.4776540271
 20
651.1183952193
 30
0.0
 11
218.4776540271
 21
576.1049863644999
 31
0.0
  0
ARC
  5
20B
330
1F
100
AcDbEntity
  8
0
  6
PHANTOM
 62
     7
370
     0
100
AcDbCircle
 10
232.1380660146
 20
651.1183952193
 30
0.0
 40
13.66041198744324
100
AcDbArc
 50
135.0
 51
180.0
  0
LINE
  5
20C
330
1F
100
AcDbEntity
  8
0
  6
Continuous
 62
     7
370
     0
100
AcDbLine
 10
250.1029188696
 20
688.4019879744999
 30
0.0
 11
222.4786960645
 21
660.7777651694
 31
0.0
  0
LWPOLYLINE
  5
20D
330
1F
100
AcDbEntity
  8
0
  6
PHANTOM
 62
     7
370
     0
100
AcDbPolyline
 90
       24
 70
   128
 43
0.0
 10
250.1029184669
 20
688.4019863508
 10
249.9120420426
 20
688.5928627752
 10
249.7220336109
 20
688.7828749321
 10
249.5337648898
 20
688.9711436532
 10
249.3480889707
 20
689.1568195722999
 10
249.1658552199
 20
689.3390533230999
 10
248.9878943771
 20
689.5170104407001
 10
248.8150148302
 20
689.6898937128
 10
248.6480100661
 20
689.8568984769
 10
248.487640044
 20
690.0172647736999
 10
248.3346349209
 20
690.1702773474
 10
248.1896876007
 20
690.3152209422999
 10
248.0534686356
 20
690.4514399074001
 10
247.9265926986
 20
690.5783158443999
 10
247.8096372097
 20
690.695267608
 10
247.7031386107
 20
690.8017662071
 10
247.6075849145
 20
690.8973199032001
 10
247.5234045296
 20
690.9815040134
 10
247.4509886115
 20
691.0539162061999
 10
247.3906612604
 20
691.1142435572998
 10
247.3427018731
 20
691.1622029446
 10
247.3073302417
 20
691.1975783013
 10
247.2846991032
 20
691.2202057145
 10
247.2749239414
 20
691.2299808763
  0
ARC
  5
20E
330
1F
100
AcDbEntity
  8
0
  6
PHANTOM
 62
     7
370
    15
100
AcDbCircle
 10
259.7622888197
 20
678.7426180244
 30
0.0
 40
17.65980276806883
100
AcDbArc
 50
116.9239902176
 51
135.0
  0
LWPOLYLINE
  5
20F
330
1F
100
AcDbEntity
  8
0
  6
PHANTOM
 62
     7
370
     0
100
AcDbPolyline
 90
       24
 70
   128
 43
0.0
 10
222.4786988109
 20
660.7777666948999
 10
222.2878223866
 20
660.9686431192
 10
222.0978102296
 20
661.1586478255999
 10
221.9095415085
 20
661.3469202719
 10
221.7238655894
 20
661.532596191
 10
221.5416318386
 20
661.7148299417999
 10
221.3636747211
 20
661.8927907846999
 10
221.1907914489
 20
662.0656666062999
 10
221.0237866848
 20
662.2326713702999
 10
220.863420388
 20
662.3930451177
 10
220.7104078143
 20
662.5460502407999
 10
220.5654642194
 20
662.6909938357999
 10
220.4292452543
 20
662.8272165260999
 10
220.3023693173
 20
662.9540924630999
 10
220.1854175537
 20
663.0710479519999
 10
220.0789189547
 20
663.1775428258
 10
219.9833578079
 20
663.2731002472
 10
219.8991811483
 20
663.3572769068
 10
219.8267689555
 20
663.4296965502
 10
219.7664416044
 20
663.490020176
 10
219.7184822171
 20
663.5379795633
 10
219.6831068605
 20
663.57335492
 10
219.6604794472
 20
663.5959823333
 10
219.6506968349
 20
663.6057612203
  0
LINE
  5
210
330
1F
100
AcDbEntity
  8
0
  6
Continuous
 62
     7
370
    15
100
AcDbLine
 10
219.6506997229
 20
663.6057615109999
 30
0.0
 11
247.274922528
 21
691.2299843161
 31
0.0
  0
LINE
  5
211
330
1F
100
AcDbEntity
  8
0
  6
PHANTOM
 62
     7
370
     0
100
AcDbLine
 10
214.4782632465
 20
651.1183952193
 30
0.0
 11
218.4776540271
 21
651.1183952193
 31
0.0
  0
ARC
  5
212
330
1F
100
AcDbEntity
  8
0
  6
PHANTOM
 62
     7
370
    15
100
AcDbCircle
 10
232.1380660146
 20
651.1183952193
 30
0.0
 40
17.65980276806885
100
AcDbArc
 50
135.0
 51
180.0
  0
ARC
  5
213
330
1F
100
AcDbEntity
  8
0
  6
PHANTOM
 62
     7
370
    15
100
AcDbCircle
 10
352.1380660146
 20
653.8803037859
 30
0.0
 40
17.65980276806877
100
AcDbArc
 50
360.0
 51
32.9483878876
  0
LINE
  5
214
330
1F
100
AcDbEntity
  8
0
  6
PHANTOM
 62
     7
370
     0
100
AcDbLine
 10
365.798478002
 20
653.8803037859
 30
0.0
 11
369.7978687827
 21
653.8803037859
 31
0.0
  0
LINE
  5
215
330
1F
100
AcDbEntity
  8
0
  6
Continuous
 62
     7
370
    15
100
AcDbLine
 10
369.7978687827
 20
653.8803037859
 30
0.0
 11
369.7978687827
 21
576.1049863644999
 31
0.0
  0
LINE
  5
216
330
1F
100
AcDbEntity
  8
0
  6
PHANTOM
 62
     7
370
     0
100
AcDbLine
 10
369.7978687827
 20
576.1049863644999
 30
0.0
 11
365.798478002
 21
576.1049863644999
 31
0.0
  0
LINE
  5
217
330
1F
100
AcDbEntity
  8
0
  6
Continuous
 62
     7
370
    15
100
AcDbLine
 10
214.4782632465
 20
576.1049863644999
 30
0.0
 11
214.4782632465
 21
651.1183952193
 31
0.0
  0
LINE
  5
218
330
1F
100
AcDbEntity
  8
0
  6
PHANTOM
 62
     7
370
     0
100
AcDbLine
 10
214.4782632465
 20
576.1049863644999
 30
0.0
 11
218.4776540271
 21
576.1049863644999
 31
0.0
  0
ARC
  5
219
330
1F
100
AcDbEntity
  8
0
  6
PHANTOM
 62
     7
370
    15
100
AcDbCircle
 10
352.1380660146
 20
576.1049863644999
 30
0.0
 40
17.65980276806886
100
AcDbArc
 50
327.0516121124
 51
0.0
  0
LWPOLYLINE
  5
21A
330
1F
100
AcDbEntity
  8
0
  6
PHANTOM
 62
     7
370
     0
100
AcDbPolyline
 90
       24
 70
   128
 43
0.0
 10
366.9574818223001
 20
566.5001128516999
 10
366.9458738177
 20
566.5076342127999
 10
366.9190219253
 20
566.5250387691001
 10
366.8770453542
 20
566.5522482894
 10
366.8201229184
 20
566.5891361139999
 10
366.74853774
 20
566.6355383298999
 10
366.6625952929
 20
566.6912388704999
 10
366.5626904576
 20
566.7559844158001
 10
366.449292621
 20
566.8294843933999
 10
366.3229084223
 20
566.9113998018
 10
366.1841115563
 20
567.0013543866
 10
366.0335427730999
 20
567.0989458165999
 10
365.8718800753
 20
567.2037233314999
 10
365.699868521
 20
567.3152100943
 10
365.5182829707
 20
567.4328957401
 10
365.32796534
 20
567.5562475525
 10
365.1297724455
 20
567.6847030124999
 10
364.9246058076
 20
567.8176735244
 10
364.71341165
 20
567.9545555912
 10
364.497143647
 20
568.0947270892
 10
364.2767927258999
 20
568.2375398181
 10
364.0533647149
 20
568.3823530278999
 10
363.8278728932
 20
568.5284998916
 10
363.6013454407
 20
568.6753173075
  0
ARC
  5
21B
330
1F
100
AcDbEntity
  8
0
  6
PHANTOM
 62
     7
370
    15
100
AcDbCircle
 10
232.1380660146
 20
576.1049863644999
 30
0.0
 40
17.6598027680688
100
AcDbArc
 50
180.0
 51
212.9483878876
  0
LWPOLYLINE
  5
21C
330
1F
100
AcDbEntity
  8
0
  6
PHANTOM
 62
     7
370
     0
100
AcDbPolyline
 90
       24
 70
   128
 43
0.0
 10
217.3186502069
 20
566.5001128516999
 10
217.3302582114
 20
566.5076342127999
 10
217.3571101039
 20
566.5250387691001
 10
217.399086675
 20
566.5522482894
 10
217.4560091107
 20
566.5891361139999
 10
217.5275942891
 20
566.6355383298999
 10
217.6135367363
 20
566.6912388704999
 10
217.7134415715
 20
566.7559844158001
 10
217.8268394082
 20
566.8294843933999
 10
217.9532236069
 20
566.9113998018
 10
218.0920204728
 20
567.0013543866
 10
218.2425892561
 20
567.0989458165999
 10
218.4042519539
 20
567.2037233314999
 10
218.5762635081
 20
567.3152100943
 10
218.7578490584
 20
567.4328957401
 10
218.9481666892
 20
567.5562475525
 10
219.1463595837
 20
567.6847030124999
 10
219.3515262216
 20
567.8176735244999
 10
219.5627203792
 20
567.9545555912
 10
219.7789883822
 20
568.0947270892
 10
219.9993393033
 20
568.2375398181
 10
220.2227673143
 20
568.3823530278999
 10
220.448259136
 20
568.5284998916
 10
220.6747865885
 20
568.6753173075
  0
ARC
  5
21D
330
1F
100
AcDbEntity
  8
0
  6
Continuous
 62
     7
370
    15
100
AcDbCircle
 10
292.1380660146
 20
614.9926450751999
 30
0.0
 40
89.15980276806878
100
AcDbArc
 50
212.9483878876
 51
327.0516121124
  0
LINE
  5
21E
330
1F
100
AcDbEntity
  8
0
  6
PHANTOM
 62
     7
370
     0
100
AcDbLine
 10
251.7657875648
 20
694.4882396853
 30
0.0
 11
250.7371907829
 21
696.5136124392999
 31
0.0
  0
ARC
  5
21F
330
1F
100
AcDbEntity
  8
0
  6
Continuous
 62
     7
370
    15
100
AcDbCircle
 10
292.1380660146
 20
614.9926450751999
 30
0.0
 40
91.43139827183723
100
AcDbArc
 50
32.9483878876
 51
116.9239902176
  0
LINE
  5
220
330
1F
100
AcDbEntity
  8
0
  6
PHANTOM
 62
     7
370
     0
100
AcDbLine
 10
366.9574809249
 20
663.4851762745999
 30
0.0
 11
368.863714914
 21
664.7206592211
 31
0.0
  0
LINE
  5
221
330
1F
100
AcDbEntity
  8
0
  6
PHANTOM
 62
     7
370
     0
100
AcDbLine
 10
247.274922528
 20
691.2299843161
 30
0.0
 11
245.6686619432
 21
692.8362449008999
 31
0.0
  0
ARC
  5
222
330
1F
100
AcDbEntity
  8
0
  6
PHANTOM
 62
     7
370
    15
100
AcDbCircle
 10
259.7622888197
 20
678.7426180244
 30
0.0
 40
19.93139827183724
100
AcDbArc
 50
116.9239902176
 51
135.0
  0
LINE
  5
223
330
1F
100
AcDbEntity
  8
0
  6
PHANTOM
 62
     7
370
     0
100
AcDbLine
 10
219.6506997229
 20
663.6057615109999
 30
0.0
 11
218.044439138
 21
665.2120220957999
 31
0.0
  0
LINE
  5
224
330
1F
100
AcDbEntity
  8
0
  6
Continuous
 62
     7
370
    15
100
AcDbLine
 10
245.6686619432
 20
692.8362449008999
 30
0.0
 11
218.044439138
 21
665.2120220957999
 31
0.0
  0
LINE
  5
225
330
1F
100
AcDbEntity
  8
0
  6
PHANTOM
 62
     7
370
     0
100
AcDbLine
 10
214.4782632465
 20
651.1183952193
 30
0.0
 11
212.2066677427
 21
651.1183952193
 31
0.0
  0
ARC
  5
226
330
1F
100
AcDbEntity
  8
0
  6
PHANTOM
 62
     7
370
    15
100
AcDbCircle
 10
232.1380660146
 20
651.1183952193
 30
0.0
 40
19.93139827183723
100
AcDbArc
 50
135.0
 51
180.0
  0
ARC
  5
227
330
1F
100
AcDbEntity
  8
0
  6
PHANTOM
 62
     7
370
    15
100
AcDbCircle
 10
352.1380660146
 20
653.8803037859
 30
0.0
 40
19.93139827183727
100
AcDbArc
 50
0.0
 51
32.9483878876
  0
LINE
  5
228
330
1F
100
AcDbEntity
  8
0
  6
PHANTOM
 62
     7
370
     0
100
AcDbLine
 10
369.7978687827
 20
653.8803037859
 30
0.0
 11
372.0694642864
 21
653.8803037859
 31
0.0
  0
LINE
  5
229
330
1F
100
AcDbEntity
  8
0
  6
Continuous
 62
     7
370
    15
100
AcDbLine
 10
372.0694642864
 20
576.1049863644999
 30
0.0
 11
372.0694642864
 21
653.8803037859
 31
0.0
  0
LINE
  5
22A
330
1F
100
AcDbEntity
  8
0
  6
PHANTOM
 62
     7
370
     0
100
AcDbLine
 10
369.7978687827
 20
576.1049863644999
 30
0.0
 11
372.0694642864
 21
576.1049863644999
 31
0.0
  0
LINE
  5
22B
330
1F
100
AcDbEntity
  8
0
  6
PHANTOM
 62
     7
370
     0
100
AcDbLine
 10
214.4782632465
 20
576.1049863644999
 30
0.0
 11
212.2066677427
 21
576.1049863644999
 31
0.0
  0
LINE
  5
22C
330
1F
100
AcDbEntity
  8
0
  6
Continuous
 62
     7
370
    15
100
AcDbLine
 10
212.2066677427
 20
651.1183952193
 30
0.0
 11
212.2066677427
 21
576.1049863644999
 31
0.0
  0
ARC
  5
22D
330
1F
100
AcDbEntity
  8
0
  6
PHANTOM
 62
     7
370
    15
100
AcDbCircle
 10
352.1380660146
 20
576.1049863644999
 30
0.0
 40
19.93139827183728
100
AcDbArc
 50
327.0516121124
 51
360.0
  0
LINE
  5
22E
330
1F
100
AcDbEntity
  8
0
  6
PHANTOM
 62
     7
370
     0
100
AcDbLine
 10
366.9574809249
 20
566.5001138756999
 30
0.0
 11
368.863714914
 21
565.2646309291999
 31
0.0
  0
LINE
  5
22F
330
1F
100
AcDbEntity
  8
0
  6
PHANTOM
 62
     7
370
     0
100
AcDbLine
 10
217.3186511043
 20
566.5001138756999
 30
0.0
 11
215.4124171151
 21
565.2646309291999
 31
0.0
  0
ARC
  5
230
330
1F
100
AcDbEntity
  8
0
  6
PHANTOM
 62
     7
370
    15
100
AcDbCircle
 10
232.1380660146
 20
576.1049863644999
 30
0.0
 40
19.93139827183726
100
AcDbArc
 50
180.0
 51
212.9483878876
  0
ARC
  5
231
330
1F
100
AcDbEntity
  8
0
  6
Continuous
 62
     7
370
    15
100
AcDbCircle
 10
292.1380660146
 20
614.9926450751999
 30
0.0
 40
91.4313982718373
100
AcDbArc
 50
212.9483878876
 51
327.0516121124
  0
LWPOLYLINE
  5
232
330
1F
100
AcDbEntity
  8
0
  6
PHANTOM
 62
     7
370
     0
100
AcDbPolyline
 90
       24
 70
   128
 43
0.0
 10
250.7371901184
 20
696.5136122607
 10
250.7309279054
 20
696.5259429714999
 10
250.7164402514
 20
696.5544712446001
 10
250.6937867611
 20
696.5990778707
 10
250.6630754679
 20
696.6595542333999
 10
250.6244442075
 20
696.7356172107001
 10
250.5780717939
 20
696.8269315264999
 10
250.5241668432
 20
696.9330724977001
 10
250.4629752248
 20
697.0535632870999
 10
250.3947763353
 20
697.1878451011999
 10
250.3198830991
 20
697.3353144428999
 10
250.2386345177
 20
697.4953007600999
 10
250.1514031201
 20
697.6670664452
 10
250.0585875123
 20
697.8498291872
 10
249.9606049269
 20
698.0427545211999
 10
249.8579098492
 20
698.2449707291999
 10
249.7509642153
 20
698.4555539391999
 10
249.6402597635
 20
698.6735430263
 10
249.526299408
 20
698.8979321621001
 10
249.4096046894
 20
699.1277155182999
 10
249.2907008737
 20
699.361842563
 10
249.1701393037
 20
699.5992329619999
 10
249.0484675973
 20
699.8388212822
 10
248.926233372
 20
700.0795048377999
  0
ARC
  5
233
330
1F
100
AcDbEntity
  8
0
  6
Continuous
 62
     7
370
     0
100
AcDbCircle
 10
292.1380660146
 20
614.9926450751999
 30
0.0
 40
95.43078905246273
100
AcDbArc
 50
32.9483878876
 51
116.9239902176
  0
LWPOLYLINE
  5
234
330
1F
100
AcDbEntity
  8
0
  6
PHANTOM
 62
     7
370
     0
100
AcDbPolyline
 90
       24
 70
   128
 43
0.0
 10
368.863712868
 20
664.7206586502
 10
368.8753208726
 20
664.7281800112999
 10
368.9021727651
 20
664.7455845676001
 10
368.9441567867
 20
664.7727940880001
 10
369.0010717719
 20
664.8096819124999
 10
369.0726644009
 20
664.8560841285
 10
369.1585993975
 20
664.911784669
 10
369.2585042327
 20
664.9765302143999
 10
369.3719020694
 20
665.050030192
 10
369.4982862681
 20
665.1319456003
 10
369.637083134
 20
665.2219001851999
 10
369.7876519173
 20
665.3194916151
 10
369.9493146151
 20
665.4242691301
 10
370.1213261693
 20
665.5357521675
 10
370.3029117196
 20
665.6534415385999
 10
370.4932293504
 20
665.776793351
 10
370.6914222448
 20
665.9052488111
 10
370.8965888827
 20
666.038219323
 10
371.1077830403
 20
666.1751013896999
 10
371.3240510433
 20
666.3152691625001
 10
371.5444019645
 20
666.4580856167
 10
371.7678299754
 20
666.6028988263999
 10
371.9933217972
 20
666.7490456901
 10
372.2198492497
 20
666.8958593808
  0
LWPOLYLINE
  5
235
330
1F
100
AcDbEntity
  8
0
  6
PHANTOM
 62
     7
370
     0
100
AcDbPolyline
 90
       24
 70
   128
 43
0.0
 10
245.6686607211
 20
692.8362440966
 10
245.6588818341
 20
692.8460267089
 10
245.6362544208
 20
692.8686541222
 10
245.6008827894
 20
692.9040220283
 10
245.5529234021
 20
692.9519814156
 10
245.492596051
 20
693.0123087666999
 10
245.4201801329
 20
693.0847284100999
 10
245.335999748
 20
693.1689050697
 10
245.2404460519
 20
693.2644587658
 10
245.1339474528
 20
693.3709573649
 10
245.0169919639
 20
693.4879165791
 10
244.8901160269
 20
693.6147925161
 10
244.7538970619
 20
693.7510114811
 10
244.6089497417
 20
693.8959550761
 10
244.4559446185
 20
694.0489601991999
 10
244.2955745965
 20
694.2093339464999
 10
244.1285661071
 20
694.3763387105999
 10
243.9556902855
 20
694.5492145322
 10
243.7777294427
 20
694.7271791002999
 10
243.5954956918
 20
694.9094128511999
 10
243.4098197728
 20
695.0950887702
 10
243.2215510517
 20
695.2833574913
 10
243.03154262
 20
695.4733621976999
 10
242.8406661957
 20
695.6642386219999
  0
ARC
  5
236
330
1F
100
AcDbEntity
  8
0
  6
PHANTOM
 62
     7
370
     0
100
AcDbCircle
 10
259.7622888197
 20
678.7426180244
 30
0.0
 40
23.93078905246285
100
AcDbArc
 50
116.9239902176
 51
135.0
  0
LWPOLYLINE
  5
237
330
1F
100
AcDbEntity
  8
0
  6
PHANTOM
 62
     7
370
     0
100
AcDbPolyline
 90
       24
 70
   128
 43
0.0
 10
215.2164390891
 20
668.0400189659999
 10
215.407322964
 20
667.8491425416999
 10
215.5973276704
 20
667.6591341099999
 10
215.7855963915
 20
667.4708653888999
 10
215.9712723106
 20
667.2851894698999
 10
216.1535060614
 20
667.1029557190999
 10
216.3314706295
 20
666.9249948762
 10
216.5043464511
 20
666.7521153292999
 10
216.6713512152
 20
666.5851105652999
 10
216.8317249625
 20
666.4247405431999
 10
216.9847300857
 20
666.2717316948
 10
217.1296736806
 20
666.1267880998
 10
217.2658926457
 20
665.9905691348
 10
217.3927685826
 20
665.8636894725
 10
217.5097277968
 20
665.7467377089
 10
217.6162189453
 20
665.6402391098001
 10
217.7117800921
 20
665.5446854136999
 10
217.7959567516
 20
665.4605050287999
 10
217.868376395
 20
665.3880891106999
 10
217.9286962956
 20
665.3277617596
 10
217.9766556829
 20
665.2798023723001
 10
218.0120310395
 20
665.2444270155999
 10
218.0346584528
 20
665.2217996023
 10
218.0444410651
 20
665.2120207153
  0
LINE
  5
238
330
1F
100
AcDbEntity
  8
0
  6
Continuous
 62
     7
370
     0
100
AcDbLine
 10
215.2164427964
 20
668.0400184374
 30
0.0
 11
242.8406656016
 21
695.6642412425
 31
0.0
  0
ARC
  5
239
330
1F
100
AcDbEntity
  8
0
  6
PHANTOM
 62
     7
370
     0
100
AcDbCircle
 10
232.1380660146
 20
651.1183952193
 30
0.0
 40
23.93078905246277
100
AcDbArc
 50
135.0
 51
180.0
  0
LINE
  5
23A
330
1F
100
AcDbEntity
  8
0
  6
PHANTOM
 62
     7
370
     0
100
AcDbLine
 10
208.2072769621
 20
651.1183952193
 30
0.0
 11
212.2066677427
 21
651.1183952193
 31
0.0
  0
ARC
  5
23B
330
1F
100
AcDbEntity
  8
0
  6
PHANTOM
 62
     7
370
     0
100
AcDbCircle
 10
352.1380660146
 20
653.8803037859
 30
0.0
 40
23.93078905246279
100
AcDbArc
 50
0.0
 51
32.9483878876
  0
LINE
  5
23C
330
1F
100
AcDbEntity
  8
0
  6
PHANTOM
 62
     7
370
     0
100
AcDbLine
 10
372.0694642864
 20
653.8803037859
 30
0.0
 11
376.068855067
 21
653.8803037859
 31
0.0
  0
LINE
  5
23D
330
1F
100
AcDbEntity
  8
0
  6
Continuous
 62
     7
370
     0
100
AcDbLine
 10
376.068855067
 20
653.8803037859
 30
0.0
 11
376.068855067
 21
576.1049863644999
 31
0.0
  0
LINE
  5
23E
330
1F
100
AcDbEntity
  8
0
  6
PHANTOM
 62
     7
370
     0
100
AcDbLine
 10
372.0694642864
 20
576.1049863644999
 30
0.0
 11
376.068855067
 21
576.1049863644999
 31
0.0
  0
LINE
  5
23F
330
1F
100
AcDbEntity
  8
0
  6
Continuous
 62
     7
370
     0
100
AcDbLine
 10
208.2072769621
 20
576.1049863644999
 30
0.0
 11
208.2072769621
 21
651.1183952193
 31
0.0
  0
LINE
  5
240
330
1F
100
AcDbEntity
  8
0
  6
PHANTOM
 62
     7
370
     0
100
AcDbLine
 10
208.2072769621
 20
576.1049863644999
 30
0.0
 11
212.2066677427
 21
576.1049863644999
 31
0.0
  0
ARC
  5
241
330
1F
100
AcDbEntity
  8
0
  6
PHANTOM
 62
     7
370
     0
100
AcDbCircle
 10
352.1380660146
 20
576.1049863644999
 30
0.0
 40
23.93078905246284
100
AcDbArc
 50
327.0516121124
 51
360.0
  0
LWPOLYLINE
  5
242
330
1F
100
AcDbEntity
  8
0
  6
PHANTOM
 62
     7
370
     0
100
AcDbPolyline
 90
       24
 70
   128
 43
0.0
 10
372.2198492497
 20
563.0894307694999
 10
371.9933217972
 20
563.2362444601999
 10
371.7678299754
 20
563.3823913239
 10
371.5444019645
 20
563.5272045335999
 10
371.3240510433
 20
563.6700209877999
 10
371.1077830403
 20
563.8101887606
 10
370.8965888827
 20
563.9470708273001
 10
370.6914222448
 20
564.0800413391999
 10
370.4932293504
 20
564.2084967992999
 10
370.3029117196
 20
564.3318486117
 10
370.1213261693
 20
564.4495379827999
 10
369.9493146151
 20
564.5610210202
 10
369.7876519173
 20
564.6657985352
 10
369.637083134
 20
564.7633899651
 10
369.4982862681
 20
564.85334455
 10
369.3719020694
 20
564.9352599582999
 10
369.2585042327
 20
565.0087599358999
 10
369.1585993975
 20
565.0735054813
 10
369.0726644009
 20
565.1292060219
 10
369.0010717719
 20
565.1756082378
 10
368.9441567867
 20
565.2124960623
 10
368.9021727651
 20
565.2397055826999
 10
368.8753208726
 20
565.257110139
 10
368.863712868
 20
565.2646315001
  0
ARC
  5
243
330
1F
100
AcDbEntity
  8
0
  6
PHANTOM
 62
     7
370
     0
100
AcDbCircle
 10
232.1380660146
 20
576.1049863644999
 30
0.0
 40
23.9307890524628
100
AcDbArc
 50
180.0
 51
212.9483878876
  0
LWPOLYLINE
  5
244
330
1F
100
AcDbEntity
  8
0
  6
PHANTOM
 62
     7
370
     0
100
AcDbPolyline
 90
       24
 70
   128
 43
0.0
 10
212.0562827795
 20
563.0894307694999
 10
212.282810232
 20
563.2362444601999
 10
212.5083020537
 20
563.3823913239
 10
212.7317300647
 20
563.5272045335999
 10
212.9520809858
 20
563.6700209877999
 10
213.1683489888
 20
563.8101887606
 10
213.3795431464
 20
563.9470708273001
 10
213.5847097843
 20
564.0800413391999
 10
213.7829026788
 20
564.2084967992999
 10
213.9732203096
 20
564.3318486117
 10
214.1548058599
 20
564.4495379827999
 10
214.3268174141
 20
564.5610210202
 10
214.4884801119
 20
564.6657985352
 10
214.6390488952
 20
564.7633899651
 10
214.7778457611
 20
564.85334455
 10
214.9042299598
 20
564.9352599582999
 10
215.0176277965
 20
565.0087599358999
 10
215.1175326317
 20
565.0735054813
 10
215.2034676283
 20
565.1292060219
 10
215.2750602573
 20
565.1756082378
 10
215.3319752424
 20
565.2124960623999
 10
215.3739592641
 20
565.2397055826999
 10
215.4008111566
 20
565.257110139
 10
215.4124191611
 20
565.2646315001
  0
ARC
  5
245
330
1F
100
AcDbEntity
  8
0
  6
Continuous
 62
     7
370
     0
100
AcDbCircle
 10
292.1380660146
 20
614.9926450751999
 30
0.0
 40
95.43078905246284
100
AcDbArc
 50
212.9483878876
 51
327.0516121124
  0
DIMENSION
  5
246
330
1F
100
AcDbEntity
  8
WAKU
 62
     7
100
AcDbDimension
  2
*D12
 10
212.2066677427
 20
453.8862176341
 30
0.0
 11
292.1380660146
 21
453.8862176341
 31
0.0
 70
   160
 42
159.8627965437
  3
SLDDIMSTYLE1
100
AcDbAlignedDimension
 13
372.0694642864
 23
576.1049863644999
 33
0.0
 14
212.2066677427
 24
576.1049863644999
 34
0.0
100
AcDbRotatedDimension
1001
ACAD
1000
DSTYLE
1002
{
1070
    77
1070
     3
1070
   143
1040
0.0393700787
1070
    41
1040
8.0
1070
    44
1040
4.0
1070
    42
1040
4.0
1070
   147
1040
6.096
1070
    73
1070
     0
1070
    74
1070
     0
1070
   140
1040
14.1111111111
1070
   284
1070
    12
1070
    78
1070
    12
1002
}
  0
INSERT
  5
26B
330
1F
100
AcDbEntity
  8
0
  6
Continuous
 62
     7
370
     0
100
AcDbBlockReference
  2
SW_CENTERMARKSYMBOL_3
 10
292.1380660146
 20
614.9926450751999
 30
0.0
  0
INSERT
  5
277
330
1F
100
AcDbEntity
  8
WAKU
 62
     7
100
AcDbBlockReference
  2
SW_CENTERMARKSYMBOL_4
 10
386.1380660146
 20
614.9926450751999
 30
0.0
  0
INSERT
  5
283
330
1F
100
AcDbEntity
  8
WAKU
 62
     7
100
AcDbBlockReference
  2
SW_CENTERMARKSYMBOL_5
 10
198.1380660146
 20
614.9926450751999
 30
0.0
  0
INSERT
  5
28F
330
1F
100
AcDbEntity
  8
WAKU
 62
     7
100
AcDbBlockReference
  2
SW_CENTERMARKSYMBOL_6
 10
357.1380660146
 20
652.9926450752
 30
0.0
  0
INSERT
  5
29B
330
1F
100
AcDbEntity
  8
WAKU
 62
     7
100
AcDbBlockReference
  2
SW_CENTERMARKSYMBOL_7
 10
357.1380660146
 20
614.9926450751999
 30
0.0
  0
INSERT
  5
2A7
330
1F
100
AcDbEntity
  8
WAKU
 62
     7
100
AcDbBlockReference
  2
SW_CENTERMARKSYMBOL_8
 10
292.1380660146
 20
684.9926450752
 30
0.0
  0
INSERT
  5
2B3
330
1F
100
AcDbEntity
  8
WAKU
 62
     7
100
AcDbBlockReference
  2
SW_CENTERMARKSYMBOL_9
 10
227.1380660146
 20
614.9926450751999
 30
0.0
  0
INSERT
  5
2BF
330
1F
100
AcDbEntity
  8
WAKU
 62
     7
100
AcDbBlockReference
  2
SW_CENTERMARKSYMBOL_10
 10
227.1380660146
 20
652.9926450752
 30
0.0
  0
INSERT
  5
2CB
330
1F
100
AcDbEntity
  8
WAKU
 62
     7
100
AcDbBlockReference
  2
SW_CENTERMARKSYMBOL_11
 10
292.1380660146
 20
546.9926450752
 30
0.0
  0
ENDSEC
  0
SECTION
  2
OBJECTS
  0
DICTIONARY
  5
C
330
0
100
AcDbDictionary
281
     1
  3
ACAD_COLOR
350
2CF
  3
ACAD_GROUP
350
D
  3
ACAD_LAYOUT
350
1A
  3
ACAD_MATERIAL
350
2CE
  3
ACAD_MLINESTYLE
350
17
  3
ACAD_PLOTSETTINGS
350
19
  3
ACAD_PLOTSTYLENAME
350
E
  3
ACDBHEADERROUNDTRIPXREC
350
2D8
  3
AcDbVariableDictionary
350
2D4
  0
DICTIONARY
  5
2CF
102
{ACAD_REACTORS
330
C
102
}
330
C
100
AcDbDictionary
281
     1
  0
DICTIONARY
  5
D
102
{ACAD_REACTORS
330
C
102
}
330
C
100
AcDbDictionary
281
     1
  0
DICTIONARY
  5
1A
102
{ACAD_REACTORS
330
C
102
}
330
C
100
AcDbDictionary
281
     1
  3
Layout1
350
1E
  3
Layout2
350
26
  3
Model
350
22
  0
DICTIONARY
  5
2CE
102
{ACAD_REACTORS
330
C
102
}
330
C
100
AcDbDictionary
281
     1
  0
DICTIONARY
  5
17
102
{ACAD_REACTORS
330
C
102
}
330
C
100
AcDbDictionary
281
     1
  3
Standard
350
18
  0
DICTIONARY
  5
19
102
{ACAD_REACTORS
330
C
102
}
330
C
100
AcDbDictionary
281
     1
  0
ACDBDICTIONARYWDFLT
  5
E
102
{ACAD_REACTORS
330
C
102
}
330
C
100
AcDbDictionary
281
     1
  3
Normal
350
F
100
AcDbDictionaryWithDefault
340
F
  0
DICTIONARY
  5
2D8
102
{ACAD_REACTORS
330
C
102
}
330
C
100
AcDbDictionary
281
     1
  0
DICTIONARY
  5
2D4
102
{ACAD_REACTORS
330
C
102
}
330
C
100
AcDbDictionary
281
     1
  3
DIMASSOC
350
2D5
  3
PROJECTNAME
350
2D6
  0
LAYOUT
  5
1E
102
{ACAD_XDICTIONARY
360
2D9
102
}
102
{ACAD_REACTORS
330
1A
102
}
330
1A
100
AcDbPlotSettings
  1

  2

  4

  6

 40
0.0
 41
0.0
 42
0.0
 43
0.0
 44
0.0
 45
0.0
 46
0.0
 47
0.0
 48
0.0
 49
0.0
140
0.0
141
0.0
142
1.0
143
1.0
 70
   688
 72
     0
 73
     0
 74
     5
  7

 75
    16
147
1.0
148
0.0
149
0.0
100
AcDbLayout
  1
Layout1
 70
     1
 71
     1
 10
0.0
 20
0.0
 11
420.0
 21
297.0
 12
0.0
 22
0.0
 32
0.0
 14
1.000000000000000E+20
 24
1.000000000000000E+20
 34
1.000000000000000E+20
 15
-1.000000000000000E+20
 25
-1.000000000000000E+20
 35
-1.000000000000000E+20
146
0.0
 13
0.0
 23
0.0
 33
0.0
 16
1.0
 26
0.0
 36
0.0
 17
0.0
 27
1.0
 37
0.0
 76
     0
330
1B
  0
LAYOUT
  5
26
102
{ACAD_XDICTIONARY
360
2DD
102
}
102
{ACAD_REACTORS
330
1A
102
}
330
1A
100
AcDbPlotSettings
  1

  2

  4

  6

 40
0.0
 41
0.0
 42
0.0
 43
0.0
 44
0.0
 45
0.0
 46
0.0
 47
0.0
 48
0.0
 49
0.0
140
0.0
141
0.0
142
1.0
143
1.0
 70
   688
 72
     0
 73
     0
 74
     5
  7

 75
    16
147
1.0
148
0.0
149
0.0
100
AcDbLayout
  1
Layout2
 70
     1
 71
     2
 10
0.0
 20
0.0
 11
0.0
 21
0.0
 12
0.0
 22
0.0
 32
0.0
 14
0.0
 24
0.0
 34
0.0
 15
0.0
 25
0.0
 35
0.0
146
0.0
 13
0.0
 23
0.0
 33
0.0
 16
1.0
 26
0.0
 36
0.0
 17
0.0
 27
1.0
 37
0.0
 76
     0
330
23
  0
LAYOUT
  5
22
102
{ACAD_XDICTIONARY
360
2DB
102
}
102
{ACAD_REACTORS
330
1A
102
}
330
1A
100
AcDbPlotSettings
  1

  2

  4

  6

 40
0.0
 41
0.0
 42
0.0
 43
0.0
 44
0.0
 45
0.0
 46
0.0
 47
0.0
 48
0.0
 49
0.0
140
0.0
141
0.0
142
1.0
143
1.0
 70
  1712
 72
     0
 73
     0
 74
     0
  7

 75
     0
147
1.0
148
0.0
149
0.0
100
AcDbLayout
  1
Model
 70
     1
 71
     0
 10
0.0
 20
0.0
 11
0.0
 21
0.0
 12
0.0
 22
0.0
 32
0.0
 14
0.0
 24
0.0
 34
0.0
 15
840.0
 25
1188.0
 35
0.0
146
0.0
 13
0.0
 23
0.0
 33
0.0
 16
1.0
 26
0.0
 36
0.0
 17
0.0
 27
1.0
 37
0.0
 76
     0
330
1F
  0
MLINESTYLE
  5
18
102
{ACAD_REACTORS
330
17
102
}
330
17
100
AcDbMlineStyle
  2
STANDARD
 70
     0
  3

 62
   256
 51
90.0
 52
90.0
 71
     2
 49
0.5
 62
   256
  6
BYLAYER
 49
-0.5
 62
   256
  6
BYLAYER
  0
ACDBPLACEHOLDER
  5
F
102
{ACAD_REACTORS
330
E
102
}
330
E
  0
DICTIONARYVAR
  5
2D5
102
{ACAD_REACTORS
330
2D4
102
}
330
2D4
100
DictionaryVariables
280
     0
  1
1
  0
DICTIONARYVAR
  5
2D6
102
{ACAD_REACTORS
330
2D4
102
}
330
2D4
100
DictionaryVariables
280
     0
  1

  0
DICTIONARY
  5
2D9
330
1E
100
AcDbDictionary
280
     1
281
     1
  3
ACAD_XREC_ROUNDTRIP
360
2DA
  0
DICTIONARY
  5
2DD
330
26
100
AcDbDictionary
280
     1
281
     1
  3
ACAD_XREC_ROUNDTRIP
360
2DE
  0
DICTIONARY
  5
2DB
330
22
100
AcDbDictionary
280
     1
281
     1
  3
ACAD_XREC_ROUNDTRIP
360
2DC
  0
XRECORD
  5
2DA
102
{ACAD_REACTORS
330
2D9
102
}
330
2D9
100
AcDbXrecord
280
     1
102
SHADEPLOT
 70
     0
102
SHADEPLOTRESLEVEL
 70
     2
102
SHADEPLOTCUSTOMDPI
 70
   300
  0
XRECORD
  5
2DE
102
{ACAD_REACTORS
330
2DD
102
}
330
2DD
100
AcDbXrecord
280
     1
102
SHADEPLOT
 70
     0
102
SHADEPLOTRESLEVEL
 70
     2
102
SHADEPLOTCUSTOMDPI
 70
   300
  0
XRECORD
  5
2DC
102
{ACAD_REACTORS
330
2DB
102
}
330
2DB
100
AcDbXrecord
280
     1
102
SHADEPLOT
 70
     0
102
SHADEPLOTRESLEVEL
 70
     2
102
SHADEPLOTCUSTOMDPI
 70
   300
  0
ENDSEC
  0
EOF
