  0
SECTION
  2
HEADER
  9
$ACADVER
  1
AC1015
  9
$ACADMAINTVER
 70
    20
  9
$DWGCODEPAGE
  3
ANSI_932
  9
$INSBASE
 10
0.0
 20
0.0
 30
0.0
  9
$EXTMIN
 10
96.35244309790001
 20
44.19144869220001
 30
-36.6951
  9
$EXTMAX
 10
1003.6213279678
 20
1434.1914486922
 30
36.8951
  9
$LIMMIN
 10
0.0
 20
0.0
  9
$LIMMAX
 10
0.0
 20
0.0
  9
$ORTHOMODE
 70
     0
  9
$REGENMODE
 70
     1
  9
$FILLMODE
 70
     1
  9
$QTEXTMODE
 70
     0
  9
$MIRRTEXT
 70
     1
  9
$LTSCALE
 40
1.0
  9
$ATTMODE
 70
     1
  9
$TEXTSIZE
 40
2.5
  9
$TRACEWID
 40
1.0
  9
$TEXTSTYLE
  7
STANDARD
  9
$CLAYER
  8
0
  9
$CELTYPE
  6
ByLayer
  9
$CECOLOR
 62
   256
  9
$CELTSCALE
 40
1.0
  9
$DISPSILH
 70
     0
  9
$DIMSCALE
 40
1.0
  9
$DIMASZ
 40
10.0
  9
$DIMEXO
 40
5.0
  9
$DIMDLI
 40
3.75
  9
$DIMRND
 40
0.0
  9
$DIMDLE
 40
0.0
  9
$DIMEXE
 40
5.0
  9
$DIMTP
 40
0.0
  9
$DIMTM
 40
0.0
  9
$DIMTXT
 40
17.6388888889
  9
$DIMCEN
 40
2.5
  9
$DIMTSZ
 40
0.0
  9
$DIMTOL
 70
     0
  9
$DIMLIM
 70
     0
  9
$DIMTIH
 70
     1
  9
$DIMTOH
 70
     1
  9
$DIMSE1
 70
     0
  9
$DIMSE2
 70
     0
  9
$DIMTAD
 70
     1
  9
$DIMZIN
 70
     0
  9
$DIMBLK
  1

  9
$DIMASO
 70
     1
  9
$DIMSHO
 70
     1
  9
$DIMPOST
  1

  9
$DIMAPOST
  1

  9
$DIMALT
 70
     0
  9
$DIMALTD
 70
     3
  9
$DIMALTF
 40
0.0393700787
  9
$DIMLFAC
 40
1.0
  9
$DIMTOFL
 70
     1
  9
$DIMTVP
 40
0.0
  9
$DIMTIX
 70
     0
  9
$DIMSOXD
 70
     0
  9
$DIMSAH
 70
     0
  9
$DIMBLK1
  1

  9
$DIMBLK2
  1

  9
$DIMSTYLE
  2
ISO-25
  9
$DIMCLRD
 70
     0
  9
$DIMCLRE
 70
     0
  9
$DIMCLRT
 70
     0
  9
$DIMTFAC
 40
1.0
  9
$DIMGAP
 40
7.62
  9
$DIMJUST
 70
     0
  9
$DIMSD1
 70
     0
  9
$DIMSD2
 70
     0
  9
$DIMTOLJ
 70
     0
  9
$DIMTZIN
 70
     0
  9
$DIMALTZ
 70
     0
  9
$DIMALTTZ
 70
     0
  9
$DIMUPT
 70
     0
  9
$DIMDEC
 70
     2
  9
$DIMTDEC
 70
     2
  9
$DIMALTU
 70
     2
  9
$DIMALTTD
 70
     3
  9
$DIMTXSTY
  7
STANDARD
  9
$DIMAUNIT
 70
     0
  9
$DIMADEC
 70
     0
  9
$DIMALTRND
 40
0.0
  9
$DIMAZIN
 70
     0
  9
$DIMDSEP
 70
    44
  9
$DIMATFIT
 70
     3
  9
$DIMFRAC
 70
     0
  9
$DIMLDRBLK
  1

  9
$DIMLUNIT
 70
     2
  9
$DIMLWD
 70
    -2
  9
$DIMLWE
 70
    -2
  9
$DIMTMOVE
 70
     0
  9
$LUNITS
 70
     2
  9
$LUPREC
 70
     2
  9
$SKETCHINC
 40
1.0
  9
$FILLETRAD
 40
10.0
  9
$AUNITS
 70
     0
  9
$AUPREC
 70
     0
  9
$MENU
  1
.
  9
$ELEVATION
 40
0.0
  9
$PELEVATION
 40
0.0
  9
$THICKNESS
 40
0.0
  9
$LIMCHECK
 70
     0
  9
$CHAMFERA
 40
10.0
  9
$CHAMFERB
 40
10.0
  9
$CHAMFERC
 40
20.0
  9
$CHAMFERD
 40
0.0
  9
$SKPOLY
 70
     0
  9
$TDCREATE
 40
2454163.434358357
  9
$TDUCREATE
 40
2454163.059358357
  9
$TDUPDATE
 40
2454855.369057974
  9
$TDUUPDATE
 40
2454854.994057974
  9
$TDINDWG
 40
0.0014599653
  9
$TDUSRTIMER
 40
0.0014599653
  9
$USRTIMER
 70
     1
  9
$ANGBASE
 50
0.0
  9
$ANGDIR
 70
     0
  9
$PDMODE
 70
     0
  9
$PDSIZE
 40
-1.0
  9
$PLINEWID
 40
0.0
  9
$SPLFRAME
 70
     0
  9
$SPLINETYPE
 70
     6
  9
$SPLINESEGS
 70
     8
  9
$HANDSEED
  5
2A4
  9
$SURFTAB1
 70
     6
  9
$SURFTAB2
 70
     6
  9
$SURFTYPE
 70
     6
  9
$SURFU
 70
     6
  9
$SURFV
 70
     6
  9
$UCSBASE
  2

  9
$UCSNAME
  2

  9
$UCSORG
 10
0.0
 20
0.0
 30
0.0
  9
$UCSXDIR
 10
1.0
 20
0.0
 30
0.0
  9
$UCSYDIR
 10
0.0
 20
1.0
 30
0.0
  9
$UCSORTHOREF
  2

  9
$UCSORTHOVIEW
 70
     0
  9
$UCSORGTOP
 10
0.0
 20
0.0
 30
0.0
  9
$UCSORGBOTTOM
 10
0.0
 20
0.0
 30
0.0
  9
$UCSORGLEFT
 10
0.0
 20
0.0
 30
0.0
  9
$UCSORGRIGHT
 10
0.0
 20
0.0
 30
0.0
  9
$UCSORGFRONT
 10
0.0
 20
0.0
 30
0.0
  9
$UCSORGBACK
 10
0.0
 20
0.0
 30
0.0
  9
$PUCSBASE
  2

  9
$PUCSNAME
  2

  9
$PUCSORG
 10
0.0
 20
0.0
 30
0.0
  9
$PUCSXDIR
 10
1.0
 20
0.0
 30
0.0
  9
$PUCSYDIR
 10
0.0
 20
1.0
 30
0.0
  9
$PUCSORTHOREF
  2

  9
$PUCSORTHOVIEW
 70
     0
  9
$PUCSORGTOP
 10
0.0
 20
0.0
 30
0.0
  9
$PUCSORGBOTTOM
 10
0.0
 20
0.0
 30
0.0
  9
$PUCSORGLEFT
 10
0.0
 20
0.0
 30
0.0
  9
$PUCSORGRIGHT
 10
0.0
 20
0.0
 30
0.0
  9
$PUCSORGFRONT
 10
0.0
 20
0.0
 30
0.0
  9
$PUCSORGBACK
 10
0.0
 20
0.0
 30
0.0
  9
$USERI1
 70
     0
  9
$USERI2
 70
     0
  9
$USERI3
 70
     0
  9
$USERI4
 70
     0
  9
$USERI5
 70
     0
  9
$USERR1
 40
0.0
  9
$USERR2
 40
0.0
  9
$USERR3
 40
0.0
  9
$USERR4
 40
0.0
  9
$USERR5
 40
0.0
  9
$WORLDVIEW
 70
     1
  9
$SHADEDGE
 70
     3
  9
$SHADEDIF
 70
    70
  9
$TILEMODE
 70
     1
  9
$MAXACTVP
 70
    64
  9
$PINSBASE
 10
0.0
 20
0.0
 30
0.0
  9
$PLIMCHECK
 70
     0
  9
$PEXTMIN
 10
1.000000000000000E+20
 20
1.000000000000000E+20
 30
1.000000000000000E+20
  9
$PEXTMAX
 10
-1.000000000000000E+20
 20
-1.000000000000000E+20
 30
-1.000000000000000E+20
  9
$PLIMMIN
 10
0.0
 20
0.0
  9
$PLIMMAX
 10
420.0
 20
297.0
  9
$UNITMODE
 70
     0
  9
$VISRETAIN
 70
     1
  9
$PLINEGEN
 70
     0
  9
$PSLTSCALE
 70
     1
  9
$TREEDEPTH
 70
  3020
  9
$CMLSTYLE
  2
Standard
  9
$CMLJUST
 70
     0
  9
$CMLSCALE
 40
20.0
  9
$PROXYGRAPHICS
 70
     1
  9
$MEASUREMENT
 70
     1
  9
$CELWEIGHT
370
    -1
  9
$ENDCAPS
280
     0
  9
$JOINSTYLE
280
     0
  9
$LWDISPLAY
290
     1
  9
$INSUNITS
 70
     4
  9
$HYPERLINKBASE
  1

  9
$STYLESHEET
  1

  9
$XEDIT
290
     1
  9
$CEPSNTYPE
380
     0
  9
$PSTYLEMODE
290
     1
  9
$FINGERPRINTGUID
  2
{6B5DD26B-2122-4E9D-931E-D69ACC1878FA}
  9
$VERSIONGUID
  2
{18AC5C58-A824-49E0-8D60-E8B6CCF32E2F}
  9
$EXTNAMES
290
     1
  9
$PSVPSCALE
 40
0.0
  9
$OLESTARTUP
290
     0
  0
ENDSEC
  0
SECTION
  2
CLASSES
  0
CLASS
  1
ACDBDICTIONARYWDFLT
  2
AcDbDictionaryWithDefault
  3
ObjectDBX Classes
 90
        0
280
     0
281
     0
  0
CLASS
  1
ACDBPLACEHOLDER
  2
AcDbPlaceHolder
  3
ObjectDBX Classes
 90
        0
280
     0
281
     0
  0
CLASS
  1
LAYOUT
  2
AcDbLayout
  3
ObjectDBX Classes
 90
        0
280
     0
281
     0
  0
CLASS
  1
DICTIONARYVAR
  2
AcDbDictionaryVar
  3
ObjectDBX Classes
 90
        0
280
     0
281
     0
  0
ENDSEC
  0
SECTION
  2
TABLES
  0
TABLE
  2
VPORT
  5
8
330
0
100
AcDbSymbolTable
 70
     2
  0
VPORT
  5
29C
330
8
100
AcDbSymbolTableRecord
100
AcDbViewportTableRecord
  2
*Active
 70
     0
 10
0.0
 20
0.0
 11
1.0
 21
1.0
 12
1447.737762436539
 22
742.4999999999999
 13
0.0
 23
0.0
 14
10.0
 24
10.0
 15
10.0
 25
10.0
 16
0.0
 26
0.0
 36
1.0
 17
0.0
 27
0.0
 37
0.0
 40
1485.308150973763
 41
1.637339055793991
 42
50.0
 43
0.0
 44
0.0
 50
0.0
 51
0.0
 71
     0
 72
  2000
 73
     1
 74
     3
 75
     0
 76
     0
 77
     0
 78
     0
281
     0
 65
     1
110
0.0
120
0.0
130
0.0
111
1.0
121
0.0
131
0.0
112
0.0
122
1.0
132
0.0
 79
     0
146
0.0
  0
ENDTAB
  0
TABLE
  2
LTYPE
  5
5
330
0
100
AcDbSymbolTable
 70
     6
  0
LTYPE
  5
14
330
5
100
AcDbSymbolTableRecord
100
AcDbLinetypeTableRecord
  2
ByBlock
 70
     0
  3

 72
    65
 73
     0
 40
0.0
  0
LTYPE
  5
15
330
5
100
AcDbSymbolTableRecord
100
AcDbLinetypeTableRecord
  2
ByLayer
 70
     0
  3

 72
    65
 73
     0
 40
0.0
  0
LTYPE
  5
16
330
5
100
AcDbSymbolTableRecord
100
AcDbLinetypeTableRecord
  2
Continuous
 70
     0
  3
Solid line
 72
    65
 73
     0
 40
0.0
  0
LTYPE
  5
2A
330
5
100
AcDbSymbolTableRecord
100
AcDbLinetypeTableRecord
  2
HIDDEN
 70
     0
  3
Hidden __ __ __ __ __ __ __ __ __ __ __ __ __ __
 72
    65
 73
     2
 40
1.905
 49
1.27
 74
     0
 49
-0.635
 74
     0
  0
LTYPE
  5
2B
330
5
100
AcDbSymbolTableRecord
100
AcDbLinetypeTableRecord
  2
PHANTOM
 70
     0
  3
Phantom ______  __  __  ______  __  __  ______
 72
    65
 73
     6
 40
12.7
 49
6.349999999999999
 74
     0
 49
-1.27
 74
     0
 49
1.27
 74
     0
 49
-1.27
 74
     0
 49
1.27
 74
     0
 49
-1.27
 74
     0
  0
LTYPE
  5
2C
330
5
100
AcDbSymbolTableRecord
100
AcDbLinetypeTableRecord
  2
CENTER
 70
     0
  3
Center ____ _ ____ _ ____ _ ____ _ ____ _ ____
 72
    65
 73
     4
 40
10.16
 49
6.349999999999999
 74
     0
 49
-1.27
 74
     0
 49
1.27
 74
     0
 49
-1.27
 74
     0
  0
LTYPE
  5
2D
330
5
100
AcDbSymbolTableRecord
100
AcDbLinetypeTableRecord
  2
CENTERX2
 70
     0
  3
Center (2x) ________  __  ________  __  _____
 72
    65
 73
     4
 40
20.32
 49
12.7
 74
     0
 49
-2.54
 74
     0
 49
2.54
 74
     0
 49
-2.54
 74
     0
  0
LTYPE
  5
2E
330
5
100
AcDbSymbolTableRecord
100
AcDbLinetypeTableRecord
  2
DOT2
 70
     0
  3
Dot (.5x) ........................................
 72
    65
 73
     2
 40
0.635
 49
0.0
 74
     0
 49
-0.635
 74
     0
  0
ENDTAB
  0
TABLE
  2
LAYER
  5
2
330
0
100
AcDbSymbolTable
 70
     4
  0
LAYER
  5
10
330
2
100
AcDbSymbolTableRecord
100
AcDbLayerTableRecord
  2
0
 70
     0
 62
     7
  6
Continuous
370
    -3
390
F
  0
LAYER
  5
2F
330
2
100
AcDbSymbolTableRecord
100
AcDbLayerTableRecord
  2
SLD-0
 70
     0
 62
     7
  6
Continuous
370
     0
390
F
  0
LAYER
  5
30
330
2
100
AcDbSymbolTableRecord
100
AcDbLayerTableRecord
  2
WAKU
 70
     0
 62
     7
  6
Continuous
370
     0
390
F
  0
LAYER
  5
5F
330
2
100
AcDbSymbolTableRecord
100
AcDbLayerTableRecord
  2
Defpoints
 70
     0
 62
     7
  6
Continuous
290
     0
370
    -3
390
F
  0
ENDTAB
  0
TABLE
  2
STYLE
  5
3
330
0
100
AcDbSymbolTable
 70
     3
  0
STYLE
  5
11
330
3
100
AcDbSymbolTableRecord
100
AcDbTextStyleTableRecord
  2
STANDARD
 70
     0
 40
0.0
 41
1.0
 50
0.0
 71
     0
 42
2.5
  3
MS UI Gothic
  4

  0
STYLE
  5
44
330
3
100
AcDbSymbolTableRecord
100
AcDbTextStyleTableRecord
  2
SLDTEXTSTYLE0
 70
     0
 40
0.0
 41
1.0
 50
0.0
 71
     0
 42
0.2
  3
MS UI Gothic
  4

  0
STYLE
  5
46
330
3
100
AcDbSymbolTableRecord
100
AcDbTextStyleTableRecord
  2
SLDTEXTSTYLE1
 70
     0
 40
0.0
 41
1.0
 50
0.0
 71
     0
 42
0.2
  3
ＭＳ Ｐゴシック
  4

  0
ENDTAB
  0
TABLE
  2
VIEW
  5
6
330
0
100
AcDbSymbolTable
 70
     0
  0
ENDTAB
  0
TABLE
  2
UCS
  5
7
330
0
100
AcDbSymbolTable
 70
     0
  0
ENDTAB
  0
TABLE
  2
APPID
  5
9
330
0
100
AcDbSymbolTable
 70
     1
  0
APPID
  5
12
330
9
100
AcDbSymbolTableRecord
100
AcDbRegAppTableRecord
  2
ACAD
 70
     0
  0
ENDTAB
  0
TABLE
  2
DIMSTYLE
  5
A
330
0
100
AcDbSymbolTable
 70
     7
100
AcDbDimStyleTable
 71
     0
  0
DIMSTYLE
105
27
330
A
100
AcDbSymbolTableRecord
100
AcDbDimStyleTableRecord
  2
ISO-25
 70
     0
 41
2.5
 42
0.625
 43
3.75
 44
1.25
 73
     0
 74
     0
 77
     1
 78
     8
140
2.5
141
2.5
143
0.0393700787
147
0.625
171
     3
172
     1
271
     2
272
     2
274
     3
278
    44
283
     0
284
     8
340
11
  0
DIMSTYLE
105
6D
102
{ACAD_REACTORS
330
5E
330
82
102
}
330
A
100
AcDbSymbolTableRecord
100
AcDbDimStyleTableRecord
  2
SLDDIMSTYLE0
 70
     0
 41
10.0
 44
0.0
 73
     0
 74
     0
 77
     3
 78
    12
140
17.6388888889
143
0.0393700787
144
5.0
147
4.4097222222
170
     1
171
     3
173
     1
271
     0
272
     0
274
     3
284
    12
340
44
341
6E
343
6E
344
6E
  0
DIMSTYLE
105
12D
102
{ACAD_REACTORS
330
120
330
13B
330
170
330
23E
102
}
330
A
100
AcDbSymbolTableRecord
100
AcDbDimStyleTableRecord
  2
SLDDIMSTYLE1
 70
     0
 41
10.0
 44
0.0
 73
     0
 74
     0
 77
     3
 78
    12
140
17.6388888889
143
0.0393700787
147
4.4097222222
170
     1
171
     3
173
     1
271
     0
272
     0
274
     3
284
    12
340
44
341
6E
343
6E
344
6E
  0
DIMSTYLE
105
161
102
{ACAD_REACTORS
330
156
102
}
330
A
100
AcDbSymbolTableRecord
100
AcDbDimStyleTableRecord
  2
SLDDIMSTYLE2
 70
     0
 41
10.0
 44
0.0
 78
    12
140
17.6388888889
143
0.0393700787
144
5.0
147
4.4097222222
170
     1
171
     3
173
     1
271
     2
272
     2
274
     3
284
    12
340
44
341
6E
343
6E
344
6E
  0
DIMSTYLE
105
198
102
{ACAD_REACTORS
330
18A
102
}
330
A
100
AcDbSymbolTableRecord
100
AcDbDimStyleTableRecord
  2
SLDDIMSTYLE3
 70
     0
 41
10.0
 44
0.0
 73
     0
 74
     0
 77
     3
 78
    12
140
17.6388888889
143
0.0393700787
147
4.4097222222
170
     1
171
     3
173
     1
271
     2
272
     2
274
     3
284
    12
340
44
341
6E
343
6E
344
6E
  0
DIMSTYLE
105
21C
102
{ACAD_REACTORS
330
212
102
}
330
A
100
AcDbSymbolTableRecord
100
AcDbDimStyleTableRecord
  2
SLDDIMSTYLE4
 70
     0
 41
10.0
 44
0.0
 78
    12
140
17.6388888889
143
0.0393700787
144
5.0
147
4.4097222222
170
     1
171
     3
172
     1
173
     1
271
     2
272
     2
274
     3
284
    12
340
44
341
6E
343
6E
344
6E
  0
DIMSTYLE
105
239
102
{ACAD_REACTORS
330
22B
102
}
330
A
100
AcDbSymbolTableRecord
100
AcDbDimStyleTableRecord
  2
SLDDIMSTYLE5
 70
     0
 41
10.0
 44
0.0
 73
     0
 74
     0
 77
     3
 78
    12
140
17.6388888889
143
0.0393700787
144
5.0
147
4.4097222222
170
     1
171
     3
173
     1
179
     2
272
     2
274
     3
284
    12
340
44
341
6E
343
6E
344
6E
  0
ENDTAB
  0
TABLE
  2
BLOCK_RECORD
  5
1
330
0
100
AcDbSymbolTable
 70
    18
  0
BLOCK_RECORD
  5
1F
330
1
100
AcDbSymbolTableRecord
100
AcDbBlockTableRecord
  2
*Model_Space
340
22
  0
BLOCK_RECORD
  5
1B
330
1
100
AcDbSymbolTableRecord
100
AcDbBlockTableRecord
  2
*Paper_Space
340
1E
  0
BLOCK_RECORD
  5
23
330
1
100
AcDbSymbolTableRecord
100
AcDbBlockTableRecord
  2
*Paper_Space0
340
26
  0
BLOCK_RECORD
  5
60
330
1
100
AcDbSymbolTableRecord
100
AcDbBlockTableRecord
  2
*D1
340
0
  0
BLOCK_RECORD
  5
6E
330
1
100
AcDbSymbolTableRecord
100
AcDbBlockTableRecord
  2
_Open30
340
0
102
{BLKREFS
331
74
331
75
331
8F
331
90
331
12E
331
12F
331
149
331
14A
331
163
331
17D
331
17E
331
199
331
19A
331
21D
331
21E
331
23B
331
23C
331
24C
331
24D
102
}
  0
BLOCK_RECORD
  5
83
330
1
100
AcDbSymbolTableRecord
100
AcDbBlockTableRecord
  2
*D3
340
0
  0
BLOCK_RECORD
  5
9D
330
1
100
AcDbSymbolTableRecord
100
AcDbBlockTableRecord
  2
SW_CENTERMARKSYMBOL_0
340
0
102
{BLKREFS
331
A8
102
}
  0
BLOCK_RECORD
  5
121
330
1
100
AcDbSymbolTableRecord
100
AcDbBlockTableRecord
  2
*D5
340
0
  0
BLOCK_RECORD
  5
13C
330
1
100
AcDbSymbolTableRecord
100
AcDbBlockTableRecord
  2
*D6
340
0
  0
BLOCK_RECORD
  5
157
330
1
100
AcDbSymbolTableRecord
100
AcDbBlockTableRecord
  2
*D7
340
0
  0
BLOCK_RECORD
  5
171
330
1
100
AcDbSymbolTableRecord
100
AcDbBlockTableRecord
  2
*D8
340
0
  0
BLOCK_RECORD
  5
18B
330
1
100
AcDbSymbolTableRecord
100
AcDbBlockTableRecord
  2
*D9
340
0
  0
BLOCK_RECORD
  5
213
330
1
100
AcDbSymbolTableRecord
100
AcDbBlockTableRecord
  2
*D10
340
0
  0
BLOCK_RECORD
  5
22C
330
1
100
AcDbSymbolTableRecord
100
AcDbBlockTableRecord
  2
*D11
340
0
  0
BLOCK_RECORD
  5
23F
330
1
100
AcDbSymbolTableRecord
100
AcDbBlockTableRecord
  2
*D12
340
0
  0
BLOCK_RECORD
  5
259
330
1
100
AcDbSymbolTableRecord
100
AcDbBlockTableRecord
  2
SW_CENTERMARKSYMBOL_1
340
0
102
{BLKREFS
331
260
102
}
  0
BLOCK_RECORD
  5
261
330
1
100
AcDbSymbolTableRecord
100
AcDbBlockTableRecord
  2
SW_CENTERMARKSYMBOL_2
340
0
102
{BLKREFS
331
26C
102
}
  0
BLOCK_RECORD
  5
26D
330
1
100
AcDbSymbolTableRecord
100
AcDbBlockTableRecord
  2
SW_CENTERMARKSYMBOL_3
340
0
102
{BLKREFS
331
278
102
}
  0
BLOCK_RECORD
  5
279
330
1
100
AcDbSymbolTableRecord
100
AcDbBlockTableRecord
  2
SW_CENTERMARKSYMBOL_4
340
0
102
{BLKREFS
331
284
102
}
  0
BLOCK_RECORD
  5
285
330
1
100
AcDbSymbolTableRecord
100
AcDbBlockTableRecord
  2
SW_CENTERMARKSYMBOL_5
340
0
102
{BLKREFS
331
290
102
}
  0
ENDTAB
  0
ENDSEC
  0
SECTION
  2
BLOCKS
  0
BLOCK
  5
20
330
1F
100
AcDbEntity
  8
0
100
AcDbBlockBegin
  2
*Model_Space
 70
     0
 10
0.0
 20
0.0
 30
0.0
  3
*Model_Space
  1

  0
ENDBLK
  5
21
330
1F
100
AcDbEntity
  8
0
100
AcDbBlockEnd
  0
BLOCK
  5
1C
330
1B
100
AcDbEntity
 67
     1
  8
0
100
AcDbBlockBegin
  2
*Paper_Space
 70
     0
 10
0.0
 20
0.0
 30
0.0
  3
*Paper_Space
  1

  0
ENDBLK
  5
1D
330
1B
100
AcDbEntity
 67
     1
  8
0
100
AcDbBlockEnd
  0
BLOCK
  5
24
330
23
100
AcDbEntity
 67
     1
  8
0
100
AcDbBlockBegin
  2
*Paper_Space0
 70
     0
 10
0.0
 20
0.0
 30
0.0
  3
*Paper_Space0
  1

  0
ENDBLK
  5
25
330
23
100
AcDbEntity
 67
     1
  8
0
100
AcDbBlockEnd
  0
BLOCK
  5
6B
330
60
100
AcDbEntity
  8
0
100
AcDbBlockBegin
  2
*D1
 70
     1
 10
0.0
 20
0.0
 30
0.0
  3
*D1
  1

  0
INSERT
  5
74
330
60
100
AcDbEntity
  8
WAKU
 62
     7
100
AcDbBlockReference
  2
_Open30
 10
159.6785059223
 20
1270.4414736395
 30
36.8951
 41
10.0
 42
10.0
 50
90.0
  0
INSERT
  5
75
330
60
100
AcDbEntity
  8
WAKU
 62
     7
100
AcDbBlockReference
  2
_Open30
 10
159.6785059223
 20
1077.7414736395
 30
36.8951
 41
10.0
 42
10.0
 50
270.0
  0
LINE
  5
76
330
60
100
AcDbEntity
  8
WAKU
 62
     7
100
AcDbLine
 10
124.4203139335
 20
1147.5945549073
 30
0.0
 11
142.0494099279
 21
1147.5945549073
 31
0.0
  0
LINE
  5
77
330
60
100
AcDbEntity
  8
WAKU
 62
     7
100
AcDbLine
 10
142.0494099279
 20
1147.5945549073
 30
0.0
 11
142.0494099279
 21
1155.5421775795
 31
0.0
  0
LINE
  5
78
330
60
100
AcDbEntity
  8
WAKU
 62
     7
100
AcDbLine
 10
124.4203139335
 20
1147.5945549073
 30
0.0
 11
124.4203139335
 21
1155.5421775795
 31
0.0
  0
LINE
  5
79
330
60
100
AcDbEntity
  8
WAKU
 62
     7
100
AcDbLine
 10
124.4203139335
 20
1202.3319293382
 30
0.0
 11
142.0494099279
 21
1202.3319293382
 31
0.0
  0
LINE
  5
7A
330
60
100
AcDbEntity
  8
WAKU
 62
     7
100
AcDbLine
 10
142.0494099279
 20
1202.3319293382
 30
0.0
 11
142.0494099279
 21
1194.384306666
 31
0.0
  0
LINE
  5
7B
330
60
100
AcDbEntity
  8
WAKU
 62
     7
100
AcDbLine
 10
124.4203139335
 20
1202.3319293382
 30
0.0
 11
124.4203139335
 21
1194.384306666
 31
0.0
  0
LINE
  5
7C
330
60
100
AcDbEntity
  8
WAKU
 62
     7
100
AcDbLine
 10
356.7324036768
 20
1270.4414736395
 30
0.0
 11
154.6785059223
 21
1270.4414736395
 31
0.0
  0
LINE
  5
7D
330
60
100
AcDbEntity
  8
WAKU
 62
     7
100
AcDbLine
 10
356.7324036768
 20
1077.7414736395
 30
0.0
 11
154.6785059223
 21
1077.7414736395
 31
0.0
  0
LINE
  5
7E
330
60
100
AcDbEntity
  8
WAKU
 62
     7
100
AcDbLine
 10
159.6785059223
 20
1270.4414736395
 30
0.0
 11
159.6785059223
 21
1077.7414736395
 31
0.0
  0
MTEXT
  5
7F
330
60
100
AcDbEntity
  8
WAKU
 62
     7
100
AcDbMText
 10
144.2845671104
 20
1153.8083269295
 30
0.0
 40
13.2291666667
 41
0.0
 71
     1
 72
     1
  1
%%c
  7
SLDTEXTSTYLE0
 11
-0.000000000000007
 21
1.0
 31
0.0
 73
     1
 44
1.0
1001
ACAD
1000
MTEXTBEGIN
1070
    73
1070
     1
1070
    44
1040
1.0
1070
    74
1070
     0
1000
MTEXTEND
  0
MTEXT
  5
80
330
60
100
AcDbEntity
  8
WAKU
 62
     7
100
AcDbMText
 10
144.2845671104
 20
1169.6745133245
 30
0.0
 40
13.2291666667
 41
0.0
 71
     1
 72
     1
  1
193
  7
SLDTEXTSTYLE0
 11
-0.000000000000007
 21
1.0
 31
0.0
 73
     1
 44
1.0
1001
ACAD
1000
MTEXTBEGIN
1070
    73
1070
     1
1070
    44
1040
1.0
1070
    74
1070
     0
1000
MTEXTEND
  0
MTEXT
  5
81
330
60
100
AcDbEntity
  8
WAKU
 62
     7
100
AcDbMText
 10
126.655471116
 20
1155.5421775795
 30
0.0
 40
13.2291666667
 41
0.0
 71
     1
 72
     1
  1
7.587
  7
SLDTEXTSTYLE0
 11
-0.000000000000007
 21
1.0
 31
0.0
 73
     1
 44
1.0
1001
ACAD
1000
MTEXTBEGIN
1070
    73
1070
     1
1070
    44
1040
1.0
1070
    74
1070
     0
1000
MTEXTEND
  0
ENDBLK
  5
6C
330
60
100
AcDbEntity
  8
0
100
AcDbBlockEnd
  0
BLOCK
  5
6F
330
6E
100
AcDbEntity
  8
0
100
AcDbBlockBegin
  2
_Open30
 70
     0
 10
0.0
 20
0.0
 30
0.0
  3
_Open30
  1

  0
LINE
  5
71
330
6E
100
AcDbEntity
  8
0
  6
ByBlock
 62
     0
370
    -2
100
AcDbLine
 10
-1.0
 20
0.267949
 30
0.0
 11
0.0
 21
0.0
 31
0.0
  0
LINE
  5
72
330
6E
100
AcDbEntity
  8
0
  6
ByBlock
 62
     0
370
    -2
100
AcDbLine
 10
0.0
 20
0.0
 30
0.0
 11
-1.0
 21
-0.267949
 31
0.0
  0
LINE
  5
73
330
6E
100
AcDbEntity
  8
0
  6
ByBlock
 62
     0
370
    -2
100
AcDbLine
 10
0.0
 20
0.0
 30
0.0
 11
-1.0
 21
0.0
 31
0.0
  0
ENDBLK
  5
70
330
6E
100
AcDbEntity
  8
0
100
AcDbBlockEnd
  0
BLOCK
  5
8D
330
83
100
AcDbEntity
  8
0
100
AcDbBlockBegin
  2
*D3
 70
     1
 10
0.0
 20
0.0
 30
0.0
  3
*D3
  1

  0
INSERT
  5
8F
330
83
100
AcDbEntity
  8
WAKU
 62
     7
100
AcDbBlockReference
  2
_Open30
 10
206.1574036768
 20
944.5053325725
 30
36.8951
 41
10.0
 42
10.0
 50
180.0
  0
INSERT
  5
90
330
83
100
AcDbEntity
  8
WAKU
 62
     7
100
AcDbBlockReference
  2
_Open30
 10
517.3074036768
 20
944.5053325725
 30
36.8951
 41
10.0
 42
10.0
  0
LINE
  5
91
330
83
100
AcDbEntity
  8
WAKU
 62
     7
100
AcDbLine
 10
330.828210946
 20
979.7635245611999
 30
0.0
 11
330.828210946
 21
962.1344285668
 31
0.0
  0
LINE
  5
92
330
83
100
AcDbEntity
  8
WAKU
 62
     7
100
AcDbLine
 10
330.828210946
 20
962.1344285668
 30
0.0
 11
338.7758336182
 21
962.1344285668
 31
0.0
  0
LINE
  5
93
330
83
100
AcDbEntity
  8
WAKU
 62
     7
100
AcDbLine
 10
330.828210946
 20
979.7635245611999
 30
0.0
 11
338.7758336182
 21
979.7635245611999
 31
0.0
  0
LINE
  5
94
330
83
100
AcDbEntity
  8
WAKU
 62
     7
100
AcDbLine
 10
394.380133374
 20
979.7635245611999
 30
0.0
 11
394.380133374
 21
962.1344285668
 31
0.0
  0
LINE
  5
95
330
83
100
AcDbEntity
  8
WAKU
 62
     7
100
AcDbLine
 10
394.380133374
 20
962.1344285668
 30
0.0
 11
386.4325107018
 21
962.1344285668
 31
0.0
  0
LINE
  5
96
330
83
100
AcDbEntity
  8
WAKU
 62
     7
100
AcDbLine
 10
394.380133374
 20
979.7635245611999
 30
0.0
 11
386.4325107018
 21
979.7635245611999
 31
0.0
  0
LINE
  5
97
330
83
100
AcDbEntity
  8
WAKU
 62
     7
100
AcDbLine
 10
206.1574036768
 20
1169.0914736395
 30
0.0
 11
206.1574036768
 21
939.5053325724999
 31
0.0
  0
LINE
  5
98
330
83
100
AcDbEntity
  8
WAKU
 62
     7
100
AcDbLine
 10
517.3074036768
 20
1169.0914736395
 30
0.0
 11
517.3074036768
 21
939.5053325724999
 31
0.0
  0
LINE
  5
99
330
83
100
AcDbEntity
  8
WAKU
 62
     7
100
AcDbLine
 10
206.1574036768
 20
944.5053325725
 30
0.0
 11
517.3074036768
 21
944.5053325725
 31
0.0
  0
MTEXT
  5
9A
330
83
100
AcDbEntity
  8
WAKU
 62
     7
100
AcDbMText
 10
341.4492569668
 20
959.8992713842999
 30
0.0
 40
13.2291666667
 41
0.0
 71
     1
 72
     1
  1
%%c
  7
SLDTEXTSTYLE0
 73
     1
 44
1.0
1001
ACAD
1000
MTEXTBEGIN
1070
    73
1070
     1
1070
    44
1040
1.0
1070
    74
1070
     0
1000
MTEXTEND
  0
MTEXT
  5
9B
330
83
100
AcDbEntity
  8
WAKU
 62
     7
100
AcDbMText
 10
357.3154433617
 20
959.8992713842999
 30
0.0
 40
13.2291666667
 41
0.0
 71
     1
 72
     1
  1
311
  7
SLDTEXTSTYLE0
 73
     1
 44
1.0
1001
ACAD
1000
MTEXTBEGIN
1070
    73
1070
     1
1070
    44
1040
1.0
1070
    74
1070
     0
1000
MTEXTEND
  0
MTEXT
  5
9C
330
83
100
AcDbEntity
  8
WAKU
 62
     7
100
AcDbMText
 10
338.7758336182
 20
977.5283673786999
 30
0.0
 40
13.2291666667
 41
0.0
 71
     1
 72
     1
  1
12.250
  7
SLDTEXTSTYLE0
 73
     1
 44
1.0
1001
ACAD
1000
MTEXTBEGIN
1070
    73
1070
     1
1070
    44
1040
1.0
1070
    74
1070
     0
1000
MTEXTEND
  0
ENDBLK
  5
8E
330
83
100
AcDbEntity
  8
0
100
AcDbBlockEnd
  0
BLOCK
  5
9E
330
9D
100
AcDbEntity
  8
0
100
AcDbBlockBegin
  2
SW_CENTERMARKSYMBOL_0
 70
     0
 10
0.0
 20
0.0
 30
0.0
  3
SW_CENTERMARKSYMBOL_0
  1

  0
LINE
  5
A0
330
9D
100
AcDbEntity
  8
WAKU
 62
     7
100
AcDbLine
 10
0.0
 20
0.0
 30
0.0
 11
2.5
 21
0.0
 31
0.0
  0
LINE
  5
A1
330
9D
100
AcDbEntity
  8
WAKU
 62
     7
100
AcDbLine
 10
0.0
 20
0.0
 30
0.0
 11
0.0
 21
2.5
 31
0.0
  0
LINE
  5
A2
330
9D
100
AcDbEntity
  8
WAKU
 62
     7
100
AcDbLine
 10
0.0
 20
0.0
 30
0.0
 11
-2.5
 21
0.0
 31
0.0
  0
LINE
  5
A3
330
9D
100
AcDbEntity
  8
WAKU
 62
     7
100
AcDbLine
 10
0.0
 20
0.0
 30
0.0
 11
0.0
 21
-2.5
 31
0.0
  0
LINE
  5
A4
330
9D
100
AcDbEntity
  8
WAKU
 62
     7
100
AcDbLine
 10
5.0
 20
0.0
 30
0.0
 11
202.5057411988
 21
0.0
 31
0.0
  0
LINE
  5
A5
330
9D
100
AcDbEntity
  8
WAKU
 62
     7
100
AcDbLine
 10
0.0
 20
5.0
 30
0.0
 11
0.0
 21
197.7303876299
 31
0.0
  0
LINE
  5
A6
330
9D
100
AcDbEntity
  8
WAKU
 62
     7
100
AcDbLine
 10
-5.0
 20
0.0
 30
0.0
 11
-186.2633963979
 21
0.0
 31
0.0
  0
LINE
  5
A7
330
9D
100
AcDbEntity
  8
WAKU
 62
     7
100
AcDbLine
 10
0.0
 20
-5.0
 30
0.0
 11
0.0
 21
-180.3238915864
 31
0.0
  0
ENDBLK
  5
9F
330
9D
100
AcDbEntity
  8
0
100
AcDbBlockEnd
  0
BLOCK
  5
12B
330
121
100
AcDbEntity
  8
0
100
AcDbBlockBegin
  2
*D5
 70
     1
 10
0.0
 20
0.0
 30
0.0
  3
*D5
  1

  0
INSERT
  5
12E
330
121
100
AcDbEntity
  8
WAKU
 62
     7
100
AcDbBlockReference
  2
_Open30
 10
745.0925350277
 20
973.5348966613999
 30
-9.651090144699999
 41
10.0
 42
10.0
 50
180.0
  0
INSERT
  5
12F
330
121
100
AcDbEntity
  8
WAKU
 62
     7
100
AcDbBlockReference
  2
_Open30
 10
906.3289350277001
 20
973.5348966613999
 30
-9.651090144699999
 41
10.0
 42
10.0
  0
LINE
  5
130
330
121
100
AcDbEntity
  8
WAKU
 62
     7
100
AcDbLine
 10
798.3420478122
 20
1008.7930886501
 30
0.0
 11
798.3420478122
 21
991.1639926557
 31
0.0
  0
LINE
  5
131
330
121
100
AcDbEntity
  8
WAKU
 62
     7
100
AcDbLine
 10
798.3420478122
 20
991.1639926557
 30
0.0
 11
806.2896704844
 21
991.1639926557
 31
0.0
  0
LINE
  5
132
330
121
100
AcDbEntity
  8
WAKU
 62
     7
100
AcDbLine
 10
798.3420478122
 20
1008.7930886501
 30
0.0
 11
806.2896704844
 21
1008.7930886501
 31
0.0
  0
LINE
  5
133
330
121
100
AcDbEntity
  8
WAKU
 62
     7
100
AcDbLine
 10
853.0794222431
 20
1008.7930886501
 30
0.0
 11
853.0794222431
 21
991.1639926557
 31
0.0
  0
LINE
  5
134
330
121
100
AcDbEntity
  8
WAKU
 62
     7
100
AcDbLine
 10
853.0794222431
 20
991.1639926557
 30
0.0
 11
845.1317995708999
 21
991.1639926557
 31
0.0
  0
LINE
  5
135
330
121
100
AcDbEntity
  8
WAKU
 62
     7
100
AcDbLine
 10
853.0794222431
 20
1008.7930886501
 30
0.0
 11
845.1317995708999
 21
1008.7930886501
 31
0.0
  0
LINE
  5
136
330
121
100
AcDbEntity
  8
WAKU
 62
     7
100
AcDbLine
 10
745.0925350277
 20
1013.5164736395
 30
0.0
 11
745.0925350277
 21
968.5348966614
 31
0.0
  0
LINE
  5
137
330
121
100
AcDbEntity
  8
WAKU
 62
     7
100
AcDbLine
 10
906.3289350277001
 20
1030.0178936229
 30
0.0
 11
906.3289350277001
 21
968.5348966614
 31
0.0
  0
LINE
  5
138
330
121
100
AcDbEntity
  8
WAKU
 62
     7
100
AcDbLine
 10
745.0925350277
 20
973.5348966613999
 30
0.0
 11
906.3289350277001
 21
973.5348966613999
 31
0.0
  0
MTEXT
  5
139
330
121
100
AcDbEntity
  8
WAKU
 62
     7
100
AcDbMText
 10
812.4889130318999
 20
988.9288354732
 30
0.0
 40
13.2291666667
 41
0.0
 71
     1
 72
     1
  1
161
  7
SLDTEXTSTYLE0
 73
     1
 44
1.0
1001
ACAD
1000
MTEXTBEGIN
1070
    73
1070
     1
1070
    44
1040
1.0
1070
    74
1070
     0
1000
MTEXTEND
  0
MTEXT
  5
13A
330
121
100
AcDbEntity
  8
WAKU
 62
     7
100
AcDbMText
 10
806.2896704844
 20
1006.5579314676
 30
0.0
 40
13.2291666667
 41
0.0
 71
     1
 72
     1
  1
6.348
  7
SLDTEXTSTYLE0
 73
     1
 44
1.0
1001
ACAD
1000
MTEXTBEGIN
1070
    73
1070
     1
1070
    44
1040
1.0
1070
    74
1070
     0
1000
MTEXTEND
  0
ENDBLK
  5
12C
330
121
100
AcDbEntity
  8
0
100
AcDbBlockEnd
  0
BLOCK
  5
147
330
13C
100
AcDbEntity
  8
0
100
AcDbBlockBegin
  2
*D6
 70
     1
 10
0.0
 20
0.0
 30
0.0
  3
*D6
  1

  0
INSERT
  5
149
330
13C
100
AcDbEntity
  8
WAKU
 62
     7
100
AcDbBlockReference
  2
_Open30
 10
977.151006595
 20
1035.0178936229
 30
-9.651090144699999
 41
10.0
 42
10.0
 50
270.0
  0
INSERT
  5
14A
330
13C
100
AcDbEntity
  8
WAKU
 62
     7
100
AcDbBlockReference
  2
_Open30
 10
977.151006595
 20
1312.9915029635
 30
-9.651090144699999
 41
10.0
 42
10.0
 50
90.0
  0
LINE
  5
14B
330
13C
100
AcDbEntity
  8
WAKU
 62
     7
100
AcDbLine
 10
941.8928146063
 20
1142.2287370792
 30
0.0
 11
959.5219106006
 21
1142.2287370792
 31
0.0
  0
LINE
  5
14C
330
13C
100
AcDbEntity
  8
WAKU
 62
     7
100
AcDbLine
 10
959.5219106006
 20
1142.2287370792
 30
0.0
 11
959.5219106006
 21
1150.1763597514
 31
0.0
  0
LINE
  5
14D
330
13C
100
AcDbEntity
  8
WAKU
 62
     7
100
AcDbLine
 10
941.8928146063
 20
1142.2287370792
 30
0.0
 11
941.8928146063
 21
1150.1763597514
 31
0.0
  0
LINE
  5
14E
330
13C
100
AcDbEntity
  8
WAKU
 62
     7
100
AcDbLine
 10
941.8928146063
 20
1205.7806595072
 30
0.0
 11
959.5219106006
 21
1205.7806595072
 31
0.0
  0
LINE
  5
14F
330
13C
100
AcDbEntity
  8
WAKU
 62
     7
100
AcDbLine
 10
959.5219106006
 20
1205.7806595072
 30
0.0
 11
959.5219106006
 21
1197.833036835
 31
0.0
  0
LINE
  5
150
330
13C
100
AcDbEntity
  8
WAKU
 62
     7
100
AcDbLine
 10
941.8928146063
 20
1205.7806595072
 30
0.0
 11
941.8928146063
 21
1197.833036835
 31
0.0
  0
LINE
  5
151
330
13C
100
AcDbEntity
  8
WAKU
 62
     7
100
AcDbLine
 10
911.3289350277
 20
1035.0178936229
 30
0.0
 11
982.151006595
 21
1035.0178936229
 31
0.0
  0
LINE
  5
152
330
13C
100
AcDbEntity
  8
WAKU
 62
     7
100
AcDbLine
 10
909.7289350277
 20
1312.9915029635
 30
0.0
 11
982.151006595
 21
1312.9915029635
 31
0.0
  0
LINE
  5
153
330
13C
100
AcDbEntity
  8
WAKU
 62
     7
100
AcDbLine
 10
977.151006595
 20
1035.0178936229
 30
0.0
 11
977.151006595
 21
1312.9915029635
 31
0.0
  0
MTEXT
  5
154
330
13C
100
AcDbEntity
  8
WAKU
 62
     7
100
AcDbMText
 10
961.7570677832
 20
1160.7828762974
 30
0.0
 40
13.2291666667
 41
0.0
 71
     1
 72
     1
  1
278
  7
SLDTEXTSTYLE0
 11
0.0000000000000001
 21
1.0
 31
0.0
 73
     1
 44
1.0
1001
ACAD
1000
MTEXTBEGIN
1070
    73
1070
     1
1070
    44
1040
1.0
1070
    74
1070
     0
1000
MTEXTEND
  0
MTEXT
  5
155
330
13C
100
AcDbEntity
  8
WAKU
 62
     7
100
AcDbMText
 10
944.1279717888001
 20
1150.1763597514
 30
0.0
 40
13.2291666667
 41
0.0
 71
     1
 72
     1
  1
10.944
  7
SLDTEXTSTYLE0
 11
0.0000000000000001
 21
1.0
 31
0.0
 73
     1
 44
1.0
1001
ACAD
1000
MTEXTBEGIN
1070
    73
1070
     1
1070
    44
1040
1.0
1070
    74
1070
     0
1000
MTEXTEND
  0
ENDBLK
  5
148
330
13C
100
AcDbEntity
  8
0
100
AcDbBlockEnd
  0
BLOCK
  5
15F
330
157
100
AcDbEntity
  8
0
100
AcDbBlockBegin
  2
*D7
 70
     1
 10
0.0
 20
0.0
 30
0.0
  3
*D7
  1

  0
INSERT
  5
163
330
157
100
AcDbEntity
  8
WAKU
 62
     7
100
AcDbBlockReference
  2
_Open30
 10
691.6071652688
 20
1256.808317333
 30
-9.651090144699999
 41
10.0
 42
10.0
 50
119.4594923521
  0
LINE
  5
164
330
157
100
AcDbEntity
  8
WAKU
 62
     7
100
AcDbLine
 10
601.1692662773
 20
1322.4756897983
 30
0.0
 11
601.1692662773
 21
1304.8465938039
 31
0.0
  0
LINE
  5
165
330
157
100
AcDbEntity
  8
WAKU
 62
     7
100
AcDbLine
 10
601.1692662773
 20
1304.8465938039
 30
0.0
 11
609.1168889495
 21
1304.8465938039
 31
0.0
  0
LINE
  5
166
330
157
100
AcDbEntity
  8
WAKU
 62
     7
100
AcDbLine
 10
601.1692662773
 20
1322.4756897983
 30
0.0
 11
609.1168889495
 21
1322.4756897983
 31
0.0
  0
LINE
  5
167
330
157
100
AcDbEntity
  8
WAKU
 62
     7
100
AcDbLine
 10
655.9066407082
 20
1322.4756897983
 30
0.0
 11
655.9066407082
 21
1304.8465938039
 31
0.0
  0
LINE
  5
168
330
157
100
AcDbEntity
  8
WAKU
 62
     7
100
AcDbLine
 10
655.9066407082
 20
1304.8465938039
 30
0.0
 11
647.9590180359999
 21
1304.8465938039
 31
0.0
  0
LINE
  5
169
330
157
100
AcDbEntity
  8
WAKU
 62
     7
100
AcDbLine
 10
655.9066407082
 20
1322.4756897983
 30
0.0
 11
647.9590180359999
 21
1322.4756897983
 31
0.0
  0
LINE
  5
16A
330
157
100
AcDbEntity
  8
WAKU
 62
     7
100
AcDbLine
 10
691.6071652688
 20
1256.808317333
 30
0.0
 11
674.4308482655999
 21
1287.2174978096
 31
0.0
  0
LINE
  5
16B
330
157
100
AcDbEntity
  8
WAKU
 62
     7
100
AcDbLine
 10
738.3289350277
 20
1174.0914736395
 30
0.0
 11
691.6071652688
 21
1256.808317333
 31
0.0
  0
LINE
  5
16C
330
157
100
AcDbEntity
  8
WAKU
 62
     7
100
AcDbLine
 10
674.4308482655999
 20
1287.2174978096
 30
0.0
 11
590.5825587199
 21
1287.2174978096
 31
0.0
  0
MTEXT
  5
16D
330
157
100
AcDbEntity
  8
WAKU
 62
     7
100
AcDbMText
 10
614.2118914182
 20
1302.6114366214
 30
0.0
 40
13.2291666667
 41
0.0
 71
     1
 72
     1
  1
R
  7
SLDTEXTSTYLE0
 73
     1
 44
1.0
1001
ACAD
1000
MTEXTBEGIN
1070
    73
1070
     1
1070
    44
1040
1.0
1070
    74
1070
     0
1000
MTEXTEND
  0
MTEXT
  5
16E
330
157
100
AcDbEntity
  8
WAKU
 62
     7
100
AcDbMText
 10
625.234919573
 20
1302.6114366214
 30
0.0
 40
13.2291666667
 41
0.0
 71
     1
 72
     1
  1
95
  7
SLDTEXTSTYLE0
 73
     1
 44
1.0
1001
ACAD
1000
MTEXTBEGIN
1070
    73
1070
     1
1070
    44
1040
1.0
1070
    74
1070
     0
1000
MTEXTEND
  0
MTEXT
  5
16F
330
157
100
AcDbEntity
  8
WAKU
 62
     7
100
AcDbMText
 10
609.1168889495
 20
1320.2405326158
 30
0.0
 40
13.2291666667
 41
0.0
 71
     1
 72
     1
  1
3.740
  7
SLDTEXTSTYLE0
 73
     1
 44
1.0
1001
ACAD
1000
MTEXTBEGIN
1070
    73
1070
     1
1070
    44
1040
1.0
1070
    74
1070
     0
1000
MTEXTEND
  0
ENDBLK
  5
160
330
157
100
AcDbEntity
  8
0
100
AcDbBlockEnd
  0
BLOCK
  5
17B
330
171
100
AcDbEntity
  8
0
100
AcDbBlockBegin
  2
*D8
 70
     1
 10
0.0
 20
0.0
 30
0.0
  3
*D8
  1

  0
INSERT
  5
17D
330
171
100
AcDbEntity
  8
WAKU
 62
     7
100
AcDbBlockReference
  2
_Open30
 10
643.3289350276999
 20
925.1133107454
 30
-9.651090144699999
 41
10.0
 42
10.0
 50
180.0
  0
INSERT
  5
17E
330
171
100
AcDbEntity
  8
WAKU
 62
     7
100
AcDbBlockReference
  2
_Open30
 10
906.3289350277001
 20
925.1133107454
 30
-9.651090144699999
 41
10.0
 42
10.0
  0
LINE
  5
17F
330
171
100
AcDbEntity
  8
WAKU
 62
     7
100
AcDbLine
 10
743.0529738136
 20
960.3715027341001
 30
0.0
 11
743.0529738136
 21
942.7424067398
 31
0.0
  0
LINE
  5
180
330
171
100
AcDbEntity
  8
WAKU
 62
     7
100
AcDbLine
 10
743.0529738136
 20
942.7424067398
 30
0.0
 11
751.0005964858
 21
942.7424067398
 31
0.0
  0
LINE
  5
181
330
171
100
AcDbEntity
  8
WAKU
 62
     7
100
AcDbLine
 10
743.0529738136
 20
960.3715027341001
 30
0.0
 11
751.0005964858
 21
960.3715027341001
 31
0.0
  0
LINE
  5
182
330
171
100
AcDbEntity
  8
WAKU
 62
     7
100
AcDbLine
 10
806.6048962416999
 20
960.3715027341001
 30
0.0
 11
806.6048962416999
 21
942.7424067398
 31
0.0
  0
LINE
  5
183
330
171
100
AcDbEntity
  8
WAKU
 62
     7
100
AcDbLine
 10
806.6048962416999
 20
942.7424067398
 30
0.0
 11
798.6572735694999
 21
942.7424067398
 31
0.0
  0
LINE
  5
184
330
171
100
AcDbEntity
  8
WAKU
 62
     7
100
AcDbLine
 10
806.6048962416999
 20
960.3715027341001
 30
0.0
 11
798.6572735694999
 21
960.3715027341001
 31
0.0
  0
LINE
  5
185
330
171
100
AcDbEntity
  8
WAKU
 62
     7
100
AcDbLine
 10
643.3289350276999
 20
1169.0914736395
 30
0.0
 11
643.3289350276999
 21
920.1133107453999
 31
0.0
  0
LINE
  5
186
330
171
100
AcDbEntity
  8
WAKU
 62
     7
100
AcDbLine
 10
906.3289350277001
 20
1030.0178936229
 30
0.0
 11
906.3289350277001
 21
920.1133107453999
 31
0.0
  0
LINE
  5
187
330
171
100
AcDbEntity
  8
WAKU
 62
     7
100
AcDbLine
 10
643.3289350276999
 20
925.1133107454
 30
0.0
 11
906.3289350277001
 21
925.1133107454
 31
0.0
  0
MTEXT
  5
188
330
171
100
AcDbEntity
  8
WAKU
 62
     7
100
AcDbMText
 10
761.6071130318999
 20
940.5072495573
 30
0.0
 40
13.2291666667
 41
0.0
 71
     1
 72
     1
  1
263
  7
SLDTEXTSTYLE0
 73
     1
 44
1.0
1001
ACAD
1000
MTEXTBEGIN
1070
    73
1070
     1
1070
    44
1040
1.0
1070
    74
1070
     0
1000
MTEXTEND
  0
MTEXT
  5
189
330
171
100
AcDbEntity
  8
WAKU
 62
     7
100
AcDbMText
 10
751.0005964858
 20
958.1363455515999
 30
0.0
 40
13.2291666667
 41
0.0
 71
     1
 72
     1
  1
10.354
  7
SLDTEXTSTYLE0
 73
     1
 44
1.0
1001
ACAD
1000
MTEXTBEGIN
1070
    73
1070
     1
1070
    44
1040
1.0
1070
    74
1070
     0
1000
MTEXTEND
  0
ENDBLK
  5
17C
330
171
100
AcDbEntity
  8
0
100
AcDbBlockEnd
  0
BLOCK
  5
196
330
18B
100
AcDbEntity
  8
0
100
AcDbBlockBegin
  2
*D9
 70
     1
 10
0.0
 20
0.0
 30
0.0
  3
*D9
  1

  0
INSERT
  5
199
330
18B
100
AcDbEntity
  8
WAKU
 62
     7
100
AcDbBlockReference
  2
_Open30
 10
619.8352241892999
 20
1269.0914736395
 30
-9.651090144699999
 41
10.0
 42
10.0
 50
90.0
  0
INSERT
  5
19A
330
18B
100
AcDbEntity
  8
WAKU
 62
     7
100
AcDbBlockReference
  2
_Open30
 10
619.8352241892999
 20
1079.0914736395
 30
-9.651090144699999
 41
10.0
 42
10.0
 50
270.0
  0
LINE
  5
19B
330
18B
100
AcDbEntity
  8
WAKU
 62
     7
100
AcDbLine
 10
584.5770322005001
 20
1147.5945549073
 30
0.0
 11
602.2061281949
 21
1147.5945549073
 31
0.0
  0
LINE
  5
19C
330
18B
100
AcDbEntity
  8
WAKU
 62
     7
100
AcDbLine
 10
602.2061281949
 20
1147.5945549073
 30
0.0
 11
602.2061281949
 21
1155.5421775795
 31
0.0
  0
LINE
  5
19D
330
18B
100
AcDbEntity
  8
WAKU
 62
     7
100
AcDbLine
 10
584.5770322005001
 20
1147.5945549073
 30
0.0
 11
584.5770322005001
 21
1155.5421775795
 31
0.0
  0
LINE
  5
19E
330
18B
100
AcDbEntity
  8
WAKU
 62
     7
100
AcDbLine
 10
584.5770322005001
 20
1202.3319293382
 30
0.0
 11
602.2061281949
 21
1202.3319293382
 31
0.0
  0
LINE
  5
19F
330
18B
100
AcDbEntity
  8
WAKU
 62
     7
100
AcDbLine
 10
602.2061281949
 20
1202.3319293382
 30
0.0
 11
602.2061281949
 21
1194.384306666
 31
0.0
  0
LINE
  5
1A0
330
18B
100
AcDbEntity
  8
WAKU
 62
     7
100
AcDbLine
 10
584.5770322005001
 20
1202.3319293382
 30
0.0
 11
584.5770322005001
 21
1194.384306666
 31
0.0
  0
LINE
  5
1A1
330
18B
100
AcDbEntity
  8
WAKU
 62
     7
100
AcDbLine
 10
733.3289350277
 20
1269.0914736395
 30
0.0
 11
614.8352241892999
 21
1269.0914736395
 31
0.0
  0
LINE
  5
1A2
330
18B
100
AcDbEntity
  8
WAKU
 62
     7
100
AcDbLine
 10
733.3289350277
 20
1079.0914736395
 30
0.0
 11
614.8352241892999
 21
1079.0914736395
 31
0.0
  0
LINE
  5
1A3
330
18B
100
AcDbEntity
  8
WAKU
 62
     7
100
AcDbLine
 10
619.8352241892999
 20
1269.0914736395
 30
0.0
 11
619.8352241892999
 21
1079.0914736395
 31
0.0
  0
MTEXT
  5
1A4
330
18B
100
AcDbEntity
  8
WAKU
 62
     7
100
AcDbMText
 10
604.4412853773999
 20
1153.8083269295
 30
0.0
 40
13.2291666667
 41
0.0
 71
     1
 72
     1
  1
%%c
  7
SLDTEXTSTYLE0
 11
-0.000000000000007
 21
1.0
 31
0.0
 73
     1
 44
1.0
1001
ACAD
1000
MTEXTBEGIN
1070
    73
1070
     1
1070
    44
1040
1.0
1070
    74
1070
     0
1000
MTEXTEND
  0
MTEXT
  5
1A5
330
18B
100
AcDbEntity
  8
WAKU
 62
     7
100
AcDbMText
 10
604.4412853773999
 20
1169.6745133245
 30
0.0
 40
13.2291666667
 41
0.0
 71
     1
 72
     1
  1
190
  7
SLDTEXTSTYLE0
 11
-0.000000000000007
 21
1.0
 31
0.0
 73
     1
 44
1.0
1001
ACAD
1000
MTEXTBEGIN
1070
    73
1070
     1
1070
    44
1040
1.0
1070
    74
1070
     0
1000
MTEXTEND
  0
MTEXT
  5
1A6
330
18B
100
AcDbEntity
  8
WAKU
 62
     7
100
AcDbMText
 10
586.812189383
 20
1155.5421775795
 30
0.0
 40
13.2291666667
 41
0.0
 71
     1
 72
     1
  1
7.480
  7
SLDTEXTSTYLE0
 11
-0.000000000000007
 21
1.0
 31
0.0
 73
     1
 44
1.0
1001
ACAD
1000
MTEXTBEGIN
1070
    73
1070
     1
1070
    44
1040
1.0
1070
    74
1070
     0
1000
MTEXTEND
  0
ENDBLK
  5
197
330
18B
100
AcDbEntity
  8
0
100
AcDbBlockEnd
  0
BLOCK
  5
21A
330
213
100
AcDbEntity
  8
0
100
AcDbBlockBegin
  2
*D10
 70
     1
 10
0.0
 20
0.0
 30
0.0
  3
*D10
  1

  0
INSERT
  5
21D
330
213
100
AcDbEntity
  8
WAKU
 62
     7
100
AcDbBlockReference
  2
_Open30
 10
461.3150156937999
 20
625.2590611926
 30
0.1
 41
10.0
 42
10.0
 50
314.530271244
  0
INSERT
  5
21E
330
213
100
AcDbEntity
  8
WAKU
 62
     7
100
AcDbBlockReference
  2
_Open30
 10
262.1497916598
 20
827.7169914781
 30
0.1
 41
10.0
 42
10.0
 50
134.530271244
  0
LINE
  5
21F
330
213
100
AcDbEntity
  8
WAKU
 62
     7
100
AcDbLine
 10
160.4753958858
 20
883.7836393186998
 30
0.0
 11
160.4753958858
 21
866.1545433244
 31
0.0
  0
LINE
  5
220
330
213
100
AcDbEntity
  8
WAKU
 62
     7
100
AcDbLine
 10
160.4753958858
 20
866.1545433244
 30
0.0
 11
168.4230185579
 21
866.1545433244
 31
0.0
  0
LINE
  5
221
330
213
100
AcDbEntity
  8
WAKU
 62
     7
100
AcDbLine
 10
160.4753958858
 20
883.7836393186998
 30
0.0
 11
168.4230185579
 21
883.7836393186998
 31
0.0
  0
LINE
  5
222
330
213
100
AcDbEntity
  8
WAKU
 62
     7
100
AcDbLine
 10
224.0273183138
 20
883.7836393186998
 30
0.0
 11
224.0273183138
 21
866.1545433244
 31
0.0
  0
LINE
  5
223
330
213
100
AcDbEntity
  8
WAKU
 62
     7
100
AcDbLine
 10
224.0273183138
 20
866.1545433244
 30
0.0
 11
216.0796956416
 21
866.1545433244
 31
0.0
  0
LINE
  5
224
330
213
100
AcDbEntity
  8
WAKU
 62
     7
100
AcDbLine
 10
224.0273183138
 20
883.7836393186998
 30
0.0
 11
216.0796956416
 21
883.7836393186998
 31
0.0
  0
LINE
  5
225
330
213
100
AcDbEntity
  8
WAKU
 62
     7
100
AcDbLine
 10
262.1497916598
 20
827.7169914781
 30
0.0
 11
241.679757388
 21
848.5254473299999
 31
0.0
  0
LINE
  5
226
330
213
100
AcDbEntity
  8
WAKU
 62
     7
100
AcDbLine
 10
461.3150156937999
 20
625.2590611926
 30
0.0
 11
262.1497916598
 21
827.7169914781
 31
0.0
  0
LINE
  5
227
330
213
100
AcDbEntity
  8
WAKU
 62
     7
100
AcDbLine
 10
241.679757388
 20
848.5254473299999
 30
0.0
 11
149.0169198451
 21
848.5254473299999
 31
0.0
  0
MTEXT
  5
228
330
213
100
AcDbEntity
  8
WAKU
 62
     7
100
AcDbMText
 10
171.0964419065
 20
863.9193861417998
 30
0.0
 40
13.2291666667
 41
0.0
 71
     1
 72
     1
  1
%%c
  7
SLDTEXTSTYLE0
 73
     1
 44
1.0
1001
ACAD
1000
MTEXTBEGIN
1070
    73
1070
     1
1070
    44
1040
1.0
1070
    74
1070
     0
1000
MTEXTEND
  0
MTEXT
  5
229
330
213
100
AcDbEntity
  8
WAKU
 62
     7
100
AcDbMText
 10
186.9626283015
 20
863.9193861417998
 30
0.0
 40
13.2291666667
 41
0.0
 71
     1
 72
     1
  1
284
  7
SLDTEXTSTYLE0
 73
     1
 44
1.0
1001
ACAD
1000
MTEXTBEGIN
1070
    73
1070
     1
1070
    44
1040
1.0
1070
    74
1070
     0
1000
MTEXTEND
  0
MTEXT
  5
22A
330
213
100
AcDbEntity
  8
WAKU
 62
     7
100
AcDbMText
 10
168.4230185579
 20
881.5484821362
 30
0.0
 40
13.2291666667
 41
0.0
 71
     1
 72
     1
  1
11.181
  7
SLDTEXTSTYLE0
 73
     1
 44
1.0
1001
ACAD
1000
MTEXTBEGIN
1070
    73
1070
     1
1070
    44
1040
1.0
1070
    74
1070
     0
1000
MTEXTEND
  0
ENDBLK
  5
21B
330
213
100
AcDbEntity
  8
0
100
AcDbBlockEnd
  0
BLOCK
  5
237
330
22C
100
AcDbEntity
  8
0
100
AcDbBlockBegin
  2
*D11
 70
     1
 10
0.0
 20
0.0
 30
0.0
  3
*D11
  1

  0
ARC
  5
23A
330
22C
100
AcDbEntity
  8
WAKU
 62
     7
100
AcDbCircle
 10
361.7324033758
 20
869.4634007466001
 30
0.0
 40
64.1492489020674
100
AcDbArc
 50
210.0000021099
 51
330.0
  0
INSERT
  5
23B
330
22C
100
AcDbEntity
  8
WAKU
 62
     7
100
AcDbBlockReference
  2
_Open30
 10
306.177525374
 20
837.3887742498
 30
-36.6951
 41
10.0
 42
10.0
 50
124.4301649675
  0
INSERT
  5
23C
330
22C
100
AcDbEntity
  8
WAKU
 62
     7
100
AcDbBlockReference
  2
_Open30
 10
417.2872825587
 20
837.3887762956
 30
-36.6951
 41
10.0
 42
10.0
 50
55.5698371424
  0
MTEXT
  5
23D
330
22C
100
AcDbEntity
  8
WAKU
 62
     7
100
AcDbMText
 10
341.0745535336
 20
820.1038819008001
 30
0.0
 40
13.2291666667
 41
0.0
 71
     1
 72
     1
  1
120°
  7
SLDTEXTSTYLE0
 11
0.999599703411987
 21
0.0282919235589894
 31
0.0
 73
     1
 44
1.0
1001
ACAD
1000
MTEXTBEGIN
1070
    73
1070
     1
1070
    44
1040
1.0
1070
    74
1070
     0
1000
MTEXTEND
  0
ENDBLK
  5
238
330
22C
100
AcDbEntity
  8
0
100
AcDbBlockEnd
  0
BLOCK
  5
24A
330
23F
100
AcDbEntity
  8
0
100
AcDbBlockBegin
  2
*D12
 70
     1
 10
0.0
 20
0.0
 30
0.0
  3
*D12
  1

  0
INSERT
  5
24C
330
23F
100
AcDbEntity
  8
WAKU
 62
     7
100
AcDbBlockReference
  2
_Open30
 10
237.912103363
 20
502.8155327104999
 30
-36.6951
 41
10.0
 42
10.0
 50
180.0000021099
  0
INSERT
  5
24D
330
23F
100
AcDbEntity
  8
WAKU
 62
     7
100
AcDbBlockReference
  2
_Open30
 10
485.5527157872
 20
502.8155418297
 30
-36.6951
 41
10.0
 42
10.0
 50
0.0000021099
  0
LINE
  5
24E
330
23F
100
AcDbEntity
  8
WAKU
 62
     7
100
AcDbLine
 10
334.3637187161
 20
538.073728251
 30
0.0
 11
334.3637193653
 21
520.4446322566
 31
0.0
  0
LINE
  5
24F
330
23F
100
AcDbEntity
  8
WAKU
 62
     7
100
AcDbLine
 10
334.3637193653
 20
520.4446322566
 30
0.0
 11
342.3113420375
 21
520.4446325492999
 31
0.0
  0
LINE
  5
250
330
23F
100
AcDbEntity
  8
WAKU
 62
     7
100
AcDbLine
 10
334.3637187161
 20
538.073728251
 30
0.0
 11
342.3113413883001
 21
538.0737285437
 31
0.0
  0
LINE
  5
251
330
23F
100
AcDbEntity
  8
WAKU
 62
     7
100
AcDbLine
 10
389.101093147
 20
538.0737302666999
 30
0.0
 11
389.1010937962
 21
520.4446342723
 31
0.0
  0
LINE
  5
252
330
23F
100
AcDbEntity
  8
WAKU
 62
     7
100
AcDbLine
 10
389.1010937962
 20
520.4446342723
 30
0.0
 11
381.153471124
 21
520.4446339796
 31
0.0
  0
LINE
  5
253
330
23F
100
AcDbEntity
  8
WAKU
 62
     7
100
AcDbLine
 10
389.101093147
 20
538.0737302666999
 30
0.0
 11
381.1534704748
 21
538.0737299739999
 31
0.0
  0
LINE
  5
254
330
23F
100
AcDbEntity
  8
WAKU
 62
     7
100
AcDbLine
 10
237.9120976556
 20
657.8039276599
 30
0.0
 11
237.9121035471
 21
497.8155327105
 31
0.0
  0
LINE
  5
255
330
23F
100
AcDbEntity
  8
WAKU
 62
     7
100
AcDbLine
 10
485.5527100798
 20
657.8039276834999
 30
0.0
 11
485.5527159712999
 21
497.8155418296999
 31
0.0
  0
LINE
  5
256
330
23F
100
AcDbEntity
  8
WAKU
 62
     7
100
AcDbLine
 10
237.912103363
 20
502.8155327104999
 30
0.0
 11
485.5527157872
 21
502.8155418297
 31
0.0
  0
MTEXT
  5
257
330
23F
100
AcDbEntity
  8
WAKU
 62
     7
100
AcDbMText
 10
348.5105846673
 20
518.2094755950999
 30
0.0
 40
13.2291666667
 41
0.0
 71
     1
 72
     1
  1
248
  7
SLDTEXTSTYLE0
 11
0.9999999999999994
 21
0.0000000368244926
 31
0.0
 73
     1
 44
1.0
1001
ACAD
1000
MTEXTBEGIN
1070
    73
1070
     1
1070
    44
1040
1.0
1070
    74
1070
     0
1000
MTEXTEND
  0
MTEXT
  5
258
330
23F
100
AcDbEntity
  8
WAKU
 62
     7
100
AcDbMText
 10
342.3113414706
 20
535.8385713610999
 30
0.0
 40
13.2291666667
 41
0.0
 71
     1
 72
     1
  1
9.750
  7
SLDTEXTSTYLE0
 11
0.9999999999999994
 21
0.0000000368244926
 31
0.0
 73
     1
 44
1.0
1001
ACAD
1000
MTEXTBEGIN
1070
    73
1070
     1
1070
    44
1040
1.0
1070
    74
1070
     0
1000
MTEXTEND
  0
ENDBLK
  5
24B
330
23F
100
AcDbEntity
  8
0
100
AcDbBlockEnd
  0
BLOCK
  5
25A
330
259
100
AcDbEntity
  8
0
100
AcDbBlockBegin
  2
SW_CENTERMARKSYMBOL_1
 70
     0
 10
0.0
 20
0.0
 30
0.0
  3
SW_CENTERMARKSYMBOL_1
  1

  0
LINE
  5
25C
330
259
100
AcDbEntity
  8
0
  6
Continuous
 62
     7
370
     0
100
AcDbLine
 10
0.0
 20
0.0
 30
0.0
 11
0.0
 21
-2.5
 31
0.0
  0
LINE
  5
25D
330
259
100
AcDbEntity
  8
0
  6
Continuous
 62
     7
370
     0
100
AcDbLine
 10
0.0
 20
0.0
 30
0.0
 11
2.5
 21
0.0
 31
0.0
  0
LINE
  5
25E
330
259
100
AcDbEntity
  8
0
  6
Continuous
 62
     7
370
     0
100
AcDbLine
 10
0.0
 20
0.0
 30
0.0
 11
0.0
 21
2.5
 31
0.0
  0
LINE
  5
25F
330
259
100
AcDbEntity
  8
0
  6
Continuous
 62
     7
370
     0
100
AcDbLine
 10
0.0
 20
0.0
 30
0.0
 11
-2.5
 21
0.0
 31
0.0
  0
ENDBLK
  5
25B
330
259
100
AcDbEntity
  8
0
100
AcDbBlockEnd
  0
BLOCK
  5
262
330
261
100
AcDbEntity
  8
0
100
AcDbBlockBegin
  2
SW_CENTERMARKSYMBOL_2
 70
     0
 10
0.0
 20
0.0
 30
0.0
  3
SW_CENTERMARKSYMBOL_2
  1

  0
LINE
  5
264
330
261
100
AcDbEntity
  8
WAKU
 62
     7
100
AcDbLine
 10
0.0
 20
0.0
 30
0.0
 11
0.0
 21
-2.5
 31
0.0
  0
LINE
  5
265
330
261
100
AcDbEntity
  8
WAKU
 62
     7
100
AcDbLine
 10
0.0
 20
0.0
 30
0.0
 11
2.5
 21
0.0
 31
0.0
  0
LINE
  5
266
330
261
100
AcDbEntity
  8
WAKU
 62
     7
100
AcDbLine
 10
0.0
 20
0.0
 30
0.0
 11
0.0
 21
2.5
 31
0.0
  0
LINE
  5
267
330
261
100
AcDbEntity
  8
WAKU
 62
     7
100
AcDbLine
 10
0.0
 20
0.0
 30
0.0
 11
-2.5
 21
0.0
 31
0.0
  0
LINE
  5
268
330
261
100
AcDbEntity
  8
WAKU
 62
     7
100
AcDbLine
 10
0.0
 20
-5.0
 30
0.0
 11
0.0
 21
-176.4742386255
 31
0.0
  0
LINE
  5
269
330
261
100
AcDbEntity
  8
WAKU
 62
     7
100
AcDbLine
 10
5.0
 20
0.0
 30
0.0
 11
174.6879873348
 21
0.0
 31
0.0
  0
LINE
  5
26A
330
261
100
AcDbEntity
  8
WAKU
 62
     7
100
AcDbLine
 10
0.0
 20
5.0
 30
0.0
 11
0.0
 21
179.2733460253
 31
0.0
  0
LINE
  5
26B
330
261
100
AcDbEntity
  8
WAKU
 62
     7
100
AcDbLine
 10
-5.0
 20
0.0
 30
0.0
 11
-203.0970583121
 21
0.0
 31
0.0
  0
ENDBLK
  5
263
330
261
100
AcDbEntity
  8
0
100
AcDbBlockEnd
  0
BLOCK
  5
26E
330
26D
100
AcDbEntity
  8
0
100
AcDbBlockBegin
  2
SW_CENTERMARKSYMBOL_3
 70
     0
 10
0.0
 20
0.0
 30
0.0
  3
SW_CENTERMARKSYMBOL_3
  1

  0
LINE
  5
270
330
26D
100
AcDbEntity
  8
WAKU
 62
     7
100
AcDbLine
 10
0.0
 20
0.0
 30
0.0
 11
-1.25
 21
2.165063509499999
 31
0.0
  0
LINE
  5
271
330
26D
100
AcDbEntity
  8
WAKU
 62
     7
100
AcDbLine
 10
0.0
 20
0.0
 30
0.0
 11
-2.165063509499999
 21
-1.25
 31
0.0
  0
LINE
  5
272
330
26D
100
AcDbEntity
  8
WAKU
 62
     7
100
AcDbLine
 10
0.0
 20
0.0
 30
0.0
 11
1.25
 21
-2.165063509499999
 31
0.0
  0
LINE
  5
273
330
26D
100
AcDbEntity
  8
WAKU
 62
     7
100
AcDbLine
 10
0.0
 20
0.0
 30
0.0
 11
2.165063509499999
 21
1.25
 31
0.0
  0
LINE
  5
274
330
26D
100
AcDbEntity
  8
WAKU
 62
     7
100
AcDbLine
 10
-2.5
 20
4.330127018899999
 30
0.0
 11
-3.408999999999999
 21
5.904561202999999
 31
0.0
  0
LINE
  5
275
330
26D
100
AcDbEntity
  8
WAKU
 62
     7
100
AcDbLine
 10
-4.330127018899999
 20
-2.5
 30
0.0
 11
-5.904561202999999
 21
-3.408999999999999
 31
0.0
  0
LINE
  5
276
330
26D
100
AcDbEntity
  8
WAKU
 62
     7
100
AcDbLine
 10
2.5
 20
-4.330127018899999
 30
0.0
 11
3.408999999999999
 21
-5.904561202999999
 31
0.0
  0
LINE
  5
277
330
26D
100
AcDbEntity
  8
WAKU
 62
     7
100
AcDbLine
 10
4.330127018899999
 20
2.5
 30
0.0
 11
5.904561202999999
 21
3.408999999999999
 31
0.0
  0
ENDBLK
  5
26F
330
26D
100
AcDbEntity
  8
0
100
AcDbBlockEnd
  0
BLOCK
  5
27A
330
279
100
AcDbEntity
  8
0
100
AcDbBlockBegin
  2
SW_CENTERMARKSYMBOL_4
 70
     0
 10
0.0
 20
0.0
 30
0.0
  3
SW_CENTERMARKSYMBOL_4
  1

  0
LINE
  5
27C
330
279
100
AcDbEntity
  8
WAKU
 62
     7
100
AcDbLine
 10
0.0
 20
0.0
 30
0.0
 11
-2.5
 21
0.0
 31
0.0
  0
LINE
  5
27D
330
279
100
AcDbEntity
  8
WAKU
 62
     7
100
AcDbLine
 10
0.0
 20
0.0
 30
0.0
 11
0.0
 21
-2.5
 31
0.0
  0
LINE
  5
27E
330
279
100
AcDbEntity
  8
WAKU
 62
     7
100
AcDbLine
 10
0.0
 20
0.0
 30
0.0
 11
2.5
 21
0.0
 31
0.0
  0
LINE
  5
27F
330
279
100
AcDbEntity
  8
WAKU
 62
     7
100
AcDbLine
 10
0.0
 20
0.0
 30
0.0
 11
0.0
 21
2.5
 31
0.0
  0
LINE
  5
280
330
279
100
AcDbEntity
  8
WAKU
 62
     7
100
AcDbLine
 10
-5.0
 20
0.0
 30
0.0
 11
-6.817999999999999
 21
0.0
 31
0.0
  0
LINE
  5
281
330
279
100
AcDbEntity
  8
WAKU
 62
     7
100
AcDbLine
 10
0.0
 20
-5.0
 30
0.0
 11
0.0
 21
-6.817999999999999
 31
0.0
  0
LINE
  5
282
330
279
100
AcDbEntity
  8
WAKU
 62
     7
100
AcDbLine
 10
5.0
 20
0.0
 30
0.0
 11
6.817999999999999
 21
0.0
 31
0.0
  0
LINE
  5
283
330
279
100
AcDbEntity
  8
WAKU
 62
     7
100
AcDbLine
 10
0.0
 20
5.0
 30
0.0
 11
0.0
 21
6.817999999999999
 31
0.0
  0
ENDBLK
  5
27B
330
279
100
AcDbEntity
  8
0
100
AcDbBlockEnd
  0
BLOCK
  5
286
330
285
100
AcDbEntity
  8
0
100
AcDbBlockBegin
  2
SW_CENTERMARKSYMBOL_5
 70
     0
 10
0.0
 20
0.0
 30
0.0
  3
SW_CENTERMARKSYMBOL_5
  1

  0
LINE
  5
288
330
285
100
AcDbEntity
  8
WAKU
 62
     7
100
AcDbLine
 10
0.0
 20
0.0
 30
0.0
 11
-2.165063509499999
 21
1.25
 31
0.0
  0
LINE
  5
289
330
285
100
AcDbEntity
  8
WAKU
 62
     7
100
AcDbLine
 10
0.0
 20
0.0
 30
0.0
 11
-1.25
 21
-2.165063509499999
 31
0.0
  0
LINE
  5
28A
330
285
100
AcDbEntity
  8
WAKU
 62
     7
100
AcDbLine
 10
0.0
 20
0.0
 30
0.0
 11
2.165063509499999
 21
-1.25
 31
0.0
  0
LINE
  5
28B
330
285
100
AcDbEntity
  8
WAKU
 62
     7
100
AcDbLine
 10
0.0
 20
0.0
 30
0.0
 11
1.25
 21
2.165063509499999
 31
0.0
  0
LINE
  5
28C
330
285
100
AcDbEntity
  8
WAKU
 62
     7
100
AcDbLine
 10
-4.330127018899999
 20
2.5
 30
0.0
 11
-5.904561202999999
 21
3.408999999999999
 31
0.0
  0
LINE
  5
28D
330
285
100
AcDbEntity
  8
WAKU
 62
     7
100
AcDbLine
 10
-2.5
 20
-4.330127018899999
 30
0.0
 11
-3.408999999999999
 21
-5.904561202999999
 31
0.0
  0
LINE
  5
28E
330
285
100
AcDbEntity
  8
WAKU
 62
     7
100
AcDbLine
 10
4.330127018899999
 20
-2.5
 30
0.0
 11
5.904561202999999
 21
-3.408999999999999
 31
0.0
  0
LINE
  5
28F
330
285
100
AcDbEntity
  8
WAKU
 62
     7
100
AcDbLine
 10
2.5
 20
4.330127018899999
 30
0.0
 11
3.408999999999999
 21
5.904561202999999
 31
0.0
  0
ENDBLK
  5
287
330
285
100
AcDbEntity
  8
0
100
AcDbBlockEnd
  0
ENDSEC
  0
SECTION
  2
ENTITIES
  0
LINE
  5
31
330
1F
100
AcDbEntity
  8
WAKU
370
    15
100
AcDbLine
 10
103.6213279678
 20
1434.1914486922
 30
0.0
 11
1003.6213279678
 21
1434.1914486922
 31
0.0
  0
LINE
  5
32
330
1F
100
AcDbEntity
  8
WAKU
370
    15
100
AcDbLine
 10
103.6213279678
 20
1434.1914486922
 30
0.0
 11
103.6213279678
 21
44.19144869220001
 31
0.0
  0
LINE
  5
33
330
1F
100
AcDbEntity
  8
WAKU
370
    15
100
AcDbLine
 10
1003.6213279678
 20
1434.1914486922
 30
0.0
 11
1003.6213279678
 21
44.19144869220001
 31
0.0
  0
LINE
  5
34
330
1F
100
AcDbEntity
  8
WAKU
370
    15
100
AcDbLine
 10
103.6213279678
 20
44.19144869220001
 30
0.0
 11
1003.6213279678
 21
44.19144869220001
 31
0.0
  0
LINE
  5
35
330
1F
100
AcDbEntity
  8
WAKU
100
AcDbLine
 10
493.6213279677999
 20
224.1914486922
 30
0.0
 11
653.6213279677999
 21
224.1914486922
 31
0.0
  0
LINE
  5
36
330
1F
100
AcDbEntity
  8
WAKU
370
    15
100
AcDbLine
 10
103.6213279678
 20
254.1914486922
 30
0.0
 11
1003.6213279678
 21
254.1914486922
 31
0.0
  0
LINE
  5
37
330
1F
100
AcDbEntity
  8
WAKU
 62
     7
370
    15
100
AcDbLine
 10
103.6213279678
 20
212.1914486922
 30
0.0
 11
493.6213279677999
 21
212.1914486922
 31
0.0
  0
LINE
  5
38
330
1F
100
AcDbEntity
  8
WAKU
 62
     7
370
    15
100
AcDbLine
 10
103.6213279678
 20
170.1914486922
 30
0.0
 11
493.6213279677999
 21
170.1914486922
 31
0.0
  0
LINE
  5
39
330
1F
100
AcDbEntity
  8
WAKU
 62
     7
370
    15
100
AcDbLine
 10
103.6213279678
 20
128.1914486922
 30
0.0
 11
493.6213279677999
 21
128.1914486922
 31
0.0
  0
LINE
  5
3A
330
1F
100
AcDbEntity
  8
WAKU
 62
     7
370
    15
100
AcDbLine
 10
103.6213279678
 20
86.19144869219999
 30
0.0
 11
493.6213279677999
 21
86.19144869219999
 31
0.0
  0
LINE
  5
3B
330
1F
100
AcDbEntity
  8
WAKU
100
AcDbLine
 10
493.6213279677999
 20
121.1914486922
 30
0.0
 11
733.6213279677999
 21
121.1914486922
 31
0.0
  0
LINE
  5
3C
330
1F
100
AcDbEntity
  8
WAKU
370
    15
100
AcDbLine
 10
493.6213279677999
 20
254.1914486922
 30
0.0
 11
493.6213279677999
 21
44.19144869220001
 31
0.0
  0
LINE
  5
3D
330
1F
100
AcDbEntity
  8
WAKU
370
    15
100
AcDbLine
 10
573.6213279678
 20
254.1914486922
 30
0.0
 11
573.6213279678
 21
44.19144869220001
 31
0.0
  0
LINE
  5
3E
330
1F
100
AcDbEntity
  8
WAKU
370
    15
100
AcDbLine
 10
653.6213279677999
 20
254.1914486922
 30
0.0
 11
653.6213279677999
 21
44.19144869220001
 31
0.0
  0
LINE
  5
3F
330
1F
100
AcDbEntity
  8
WAKU
370
    15
100
AcDbLine
 10
733.6213279677999
 20
151.1914486922
 30
0.0
 11
733.6213279677999
 21
44.19144869220001
 31
0.0
  0
LINE
  5
40
330
1F
100
AcDbEntity
  8
WAKU
370
    15
100
AcDbLine
 10
493.6213279677999
 20
151.1914486922
 30
0.0
 11
1003.6213279678
 21
151.1914486922
 31
0.0
  0
LINE
  5
41
330
1F
100
AcDbEntity
  8
WAKU
370
    15
100
AcDbLine
 10
143.8554210472
 20
254.1914486922
 30
0.0
 11
143.8554210472
 21
44.19144869220001
 31
0.0
  0
LINE
  5
42
330
1F
100
AcDbEntity
  8
WAKU
370
    15
100
AcDbLine
 10
232.4694798434
 20
254.1914486922
 30
0.0
 11
232.4694798434
 21
44.19144869220001
 31
0.0
  0
LINE
  5
43
330
1F
100
AcDbEntity
  8
WAKU
370
    15
100
AcDbLine
 10
430.323283535
 20
254.1914486922
 30
0.0
 11
430.323283535
 21
44.19144869220001
 31
0.0
  0
MTEXT
  5
45
330
1F
100
AcDbEntity
  8
WAKU
100
AcDbMText
 10
824.5676601199999
 20
106.8492152607
 30
0.0
 40
23.8125
 41
0.0
 71
     1
 72
     1
  1
A-ID7
  7
SLDTEXTSTYLE0
 73
     1
 44
1.0
1001
ACAD
1000
MTEXTBEGIN
1070
    73
1070
     1
1070
    44
1040
1.0
1070
    74
1070
     0
1000
MTEXTEND
  0
MTEXT
  5
47
330
1F
100
AcDbEntity
  8
WAKU
100
AcDbMText
 10
890.9560667125001
 20
1418.3029475719
 30
0.0
 40
13.2291666667
 41
0.0
 71
     1
 72
     1
  1
{\fProxy 2|b0|i0|c128|p0;Unit:}
  7
SLDTEXTSTYLE1
 73
     1
 44
1.0
1001
ACAD
1000
MTEXTBEGIN
1070
    73
1070
     1
1070
    44
1040
1.0
1070
    74
1070
     0
1000
MTEXTEND
  0
MTEXT
  5
48
330
1F
100
AcDbEntity
  8
WAKU
100
AcDbMText
 10
941.7700954119
 20
1425.7125354873
 30
0.0
 40
13.2291666667
 41
0.0
 71
     1
 72
     1
  1
[ inch ]
  7
SLDTEXTSTYLE1
 73
     1
 44
1.0
1001
ACAD
1000
MTEXTBEGIN
1070
    73
1070
     1
1070
    44
1040
1.0
1070
    74
1070
     0
1000
MTEXTEND
  0
MTEXT
  5
49
330
1F
100
AcDbEntity
  8
WAKU
100
AcDbMText
 10
955.1758609925999
 20
1408.5302272228
 30
0.0
 40
13.2291666667
 41
0.0
 71
     1
 72
     1
  1
mm
  7
SLDTEXTSTYLE1
 73
     1
 44
1.0
1001
ACAD
1000
MTEXTBEGIN
1070
    73
1070
     1
1070
    44
1040
1.0
1070
    74
1070
     0
1000
MTEXTEND
  0
CIRCLE
  5
4A
330
1F
100
AcDbEntity
  8
0
  6
Continuous
 62
     7
370
    15
100
AcDbCircle
 10
361.7324036768
 20
1174.0914736395
 30
0.0
 40
96.34999999999998
  0
CIRCLE
  5
4B
330
1F
100
AcDbEntity
  8
0
  6
Continuous
 62
     7
370
    15
100
AcDbCircle
 10
361.7324036768
 20
1174.0914736395
 30
0.0
 40
155.5750000000001
  0
LINE
  5
4C
330
1F
100
AcDbEntity
  8
0
  6
Continuous
 62
     7
370
    15
100
AcDbLine
 10
446.2826204708
 20
1130.775645793
 30
0.0
 11
447.4532035401
 21
1130.0998073523
 31
0.0
  0
LINE
  5
4D
330
1F
100
AcDbEntity
  8
0
  6
Continuous
 62
     7
370
    15
100
AcDbLine
 10
441.5201199462999
 20
1122.5267541116
 30
0.0
 11
442.6907030156
 21
1121.8509156709
 31
0.0
  0
LINE
  5
4E
330
1F
100
AcDbEntity
  8
0
  6
Continuous
 62
     7
370
    15
100
AcDbLine
 10
356.9699036179
 20
1268.9720247393
 30
0.0
 11
356.9699036179
 21
1270.3237016206
 31
0.0
  0
LINE
  5
4F
330
1F
100
AcDbEntity
  8
0
  6
Continuous
 62
     7
370
    15
100
AcDbLine
 10
366.4949037356
 20
1268.9720247393
 30
0.0
 11
366.4949037356
 21
1270.3237016206
 31
0.0
  0
LINE
  5
50
330
1F
100
AcDbEntity
  8
0
  6
Continuous
 62
     7
370
    15
100
AcDbLine
 10
281.9446874073
 20
1122.5267541116
 30
0.0
 11
280.7741043379
 21
1121.8509156709
 31
0.0
  0
LINE
  5
51
330
1F
100
AcDbEntity
  8
0
  6
Continuous
 62
     7
370
    15
100
AcDbLine
 10
277.1821868827
 20
1130.775645793
 30
0.0
 11
276.0116038134
 21
1130.0998073523
 31
0.0
  0
ARC
  5
52
330
1F
100
AcDbEntity
  8
0
  6
Continuous
 62
     7
370
    15
100
AcDbCircle
 10
296.3116379085
 20
1060.2973287171
 30
0.0
 40
57.15000000000005
100
AcDbArc
 50
100.5015097655
 51
101.7476314245
  0
ARC
  5
53
330
1F
100
AcDbEntity
  8
0
  6
Continuous
 62
     7
370
    15
100
AcDbCircle
 10
295.8583583712
 20
1060.55902978
 30
0.0
 40
57.15000000000002
100
AcDbArc
 50
18.2344040379
 51
19.4984902345
  0
LINE
  5
54
330
1F
100
AcDbEntity
  8
0
  6
Continuous
 62
     7
370
    15
100
AcDbLine
 10
349.7308222562001
 20
1079.634672232
 30
0.0
 11
349.2436520046
 21
1079.9159411793
 31
0.0
  0
LINE
  5
55
330
1F
100
AcDbEntity
  8
0
  6
Continuous
 62
     7
370
    15
100
AcDbLine
 10
286.4183736255
 20
1116.1881316905
 30
0.0
 11
285.8953969229
 21
1116.490072232
 31
0.0
  0
ARC
  5
56
330
1F
100
AcDbEntity
  8
0
  6
Continuous
 62
     7
370
    15
100
AcDbCircle
 10
295.8941662561
 20
1287.6445911911
 30
0.0
 40
57.14999999999995
100
AcDbArc
 50
340.5015097655
 51
341.7476314245
  0
LINE
  5
57
330
1F
100
AcDbEntity
  8
0
  6
Continuous
 62
     7
370
    15
100
AcDbLine
 10
285.9312048079
 20
1231.7135487391
 30
0.0
 11
286.4183736255
 21
1231.9948155885
 31
0.0
  0
LINE
  5
58
330
1F
100
AcDbEntity
  8
0
  6
Continuous
 62
     7
370
    15
100
AcDbLine
 10
349.2436520046
 20
1268.2670060997
 30
0.0
 11
349.7666301412
 21
1268.5689487391
 31
0.0
  0
ARC
  5
59
330
1F
100
AcDbEntity
  8
0
  6
Continuous
 62
     7
370
    15
100
AcDbCircle
 10
296.3474457934999
 20
1287.906292254
 30
0.0
 40
57.15000000000001
100
AcDbArc
 50
258.2344040379
 51
259.4984902345
  0
LINE
  5
5A
330
1F
100
AcDbEntity
  8
0
  6
Continuous
 62
     7
370
    15
100
AcDbLine
 10
536.8095839662
 20
1137.1200016542
 30
0.0
 11
536.8095839662
 21
1210.498196115
 31
0.0
  0
ARC
  5
5B
330
1F
100
AcDbEntity
  8
0
  6
Continuous
 62
     7
370
    15
100
AcDbCircle
 10
492.9914068656
 20
1173.8090988846
 30
0.0
 40
57.15000000000015
100
AcDbArc
 50
284.1875453346
 51
320.0604560945001
  0
ARC
  5
5C
330
1F
100
AcDbEntity
  8
0
  6
Continuous
 62
     7
370
    15
100
AcDbCircle
 10
492.9914068656
 20
1173.8090988846
 30
0.0
 40
57.15000000000018
100
AcDbArc
 50
39.9395439055
 51
75.5659366157
  0
CIRCLE
  5
5D
330
1F
100
AcDbEntity
  8
0
  6
Continuous
 62
     7
370
    15
100
AcDbCircle
 10
361.7324036768
 20
1174.0914736395
 30
0.0
 40
94.99999999999994
  0
DIMENSION
  5
5E
330
1F
100
AcDbEntity
  8
WAKU
 62
     7
100
AcDbDimension
  2
*D1
 10
159.6785059223
 20
1077.7414736395
 30
0.0
 11
159.6785059223
 21
1174.0914736395
 31
0.0
 70
   160
  1
%%c<>
 42
963.4999999999999
  3
SLDDIMSTYLE0
100
AcDbAlignedDimension
 13
361.7324036768
 23
1270.4414736395
 33
0.0
 14
361.7324036768
 24
1077.7414736395
 34
0.0
 50
90.0
100
AcDbRotatedDimension
1001
ACAD
1000
DSTYLE
1002
{
1070
    77
1070
     3
1070
   143
1040
0.0393700787
1070
    41
1040
10.0
1070
    44
1040
5.0
1070
    42
1040
5.0
1070
   147
1040
7.62
1070
    73
1070
     0
1070
    74
1070
     0
1070
   140
1040
17.6388888889
1070
   284
1070
    12
1070
    78
1070
    12
1002
}
  0
DIMENSION
  5
82
330
1F
100
AcDbEntity
  8
WAKU
 62
     7
100
AcDbDimension
  2
*D3
 10
517.3074036768
 20
944.5053325725
 30
0.0
 11
361.7324036768
 21
944.5053325725
 31
0.0
 70
   160
  1
%%c<>
 42
1555.75
  3
SLDDIMSTYLE0
100
AcDbAlignedDimension
 13
206.1574036768
 23
1174.0914736395
 33
0.0
 14
517.3074036768
 24
1174.0914736395
 34
0.0
100
AcDbRotatedDimension
1001
ACAD
1000
DSTYLE
1002
{
1070
    77
1070
     3
1070
   143
1040
0.0393700787
1070
    41
1040
10.0
1070
    44
1040
5.0
1070
    42
1040
5.0
1070
   147
1040
7.62
1070
    73
1070
     0
1070
    74
1070
     0
1070
   140
1040
17.6388888889
1070
   284
1070
    12
1070
    78
1070
    12
1002
}
  0
INSERT
  5
A8
330
1F
100
AcDbEntity
  8
WAKU
 62
     7
100
AcDbBlockReference
  2
SW_CENTERMARKSYMBOL_0
 10
361.7324036768
 20
1174.0914736395
 30
0.0
  0
LINE
  5
A9
330
1F
100
AcDbEntity
  8
WAKU
 62
     7
370
     0
100
AcDbLine
 10
634.2911322313999
 20
1174.0914736395
 30
0.0
 11
929.6598812312
 21
1174.0914736395
 31
0.0
  0
LINE
  5
AA
330
1F
100
AcDbEntity
  8
0
  6
Continuous
 62
     7
370
    15
100
AcDbLine
 10
741.1997350277
 20
1018.5164736395
 30
0.0
 11
745.0925350277
 21
1018.5164736395
 31
0.0
  0
LINE
  5
AB
330
1F
100
AcDbEntity
  8
0
  6
Continuous
 62
     7
370
    15
100
AcDbLine
 10
745.0925350277
 20
1329.6664736395
 30
0.0
 11
741.1997350277
 21
1329.6664736395
 31
0.0
  0
ARC
  5
AC
330
1F
100
AcDbEntity
  8
0
  6
Continuous
 62
     7
370
    15
100
AcDbCircle
 10
741.1997350277
 20
1327.6664736395
 30
0.0
 40
2.000000000000114
100
AcDbArc
 50
90.0
 51
180.0
  0
ARC
  5
AD
330
1F
100
AcDbEntity
  8
0
  6
Continuous
 62
     7
370
    15
100
AcDbCircle
 10
741.1997350277
 20
1020.5164736395
 30
0.0
 40
2.000000000000114
100
AcDbArc
 50
180.0
 51
270.0
  0
LINE
  5
AE
330
1F
100
AcDbEntity
  8
0
  6
Continuous
 62
     7
370
    15
100
AcDbLine
 10
906.3289387048
 20
1169.0432237913
 30
0.0
 11
910.3289350277
 21
1169.0432236395
 31
0.0
  0
LINE
  5
AF
330
1F
100
AcDbEntity
  8
0
  6
Continuous
 62
     7
370
    15
100
AcDbLine
 10
910.3289350277
 20
1179.1397236395
 30
0.0
 11
906.3289387048
 21
1179.1397234877
 31
0.0
  0
LINE
  5
B0
330
1F
100
AcDbEntity
  8
0
  6
Continuous
 62
     7
370
    15
100
AcDbLine
 10
910.3289319098999
 20
1170.0698155431
 30
0.0
 11
911.3289350277
 21
1170.0698154395
 31
0.0
  0
LINE
  5
B1
330
1F
100
AcDbEntity
  8
0
  6
Continuous
 62
     7
370
    15
100
AcDbLine
 10
911.3289350277
 20
1178.1131318395
 30
0.0
 11
910.3289319098999
 21
1178.113131736
 31
0.0
  0
LINE
  5
B2
330
1F
100
AcDbEntity
  8
0
  6
Continuous
 62
     7
370
    15
100
AcDbLine
 10
785.4769749464
 20
1169.7734738221
 30
0.0
 11
787.7629733404
 21
1169.7734736395
 31
0.0
  0
LINE
  5
B3
330
1F
100
AcDbEntity
  8
0
  6
Continuous
 62
     7
370
    15
100
AcDbLine
 10
787.7629733404
 20
1178.4094736395
 30
0.0
 11
785.4769749464
 21
1178.409473457
 31
0.0
  0
LINE
  5
B4
330
1F
100
AcDbEntity
  8
0
  6
Continuous
 62
     7
370
    15
100
AcDbLine
 10
745.1433351160001
 20
1171.6784736594
 30
0.0
 11
784.2577731133999
 21
1171.6784736594
 31
0.0
  0
LINE
  5
B5
330
1F
100
AcDbEntity
  8
0
  6
Continuous
 62
     7
370
    15
100
AcDbLine
 10
787.762973261
 20
1171.6784736594
 30
0.0
 11
807.4769733403998
 21
1171.6784736395
 31
0.0
  0
LINE
  5
B6
330
1F
100
AcDbEntity
  8
0
  6
Continuous
 62
     7
370
    15
100
AcDbLine
 10
807.4769733403998
 20
1176.5044736395
 30
0.0
 11
787.762973261
 21
1176.5044736197
 31
0.0
  0
LINE
  5
B7
330
1F
100
AcDbEntity
  8
0
  6
Continuous
 62
     7
370
    15
100
AcDbLine
 10
784.2577731133999
 20
1176.5044736197
 30
0.0
 11
745.1433351160001
 21
1176.5044736197
 31
0.0
  0
LINE
  5
B8
330
1F
100
AcDbEntity
  8
0
  6
Continuous
 62
     7
370
    15
100
AcDbLine
 10
738.3289350277
 20
1079.0914736395
 30
0.0
 11
739.1997350277001
 21
1079.0914748316
 31
0.0
  0
LINE
  5
B9
330
1F
100
AcDbEntity
  8
0
  6
Continuous
 62
     7
370
    15
100
AcDbLine
 10
739.1997350277001
 20
1269.0914724474
 30
0.0
 11
738.3289350277
 21
1269.0914736395
 31
0.0
  0
ARC
  5
BA
330
1F
100
AcDbEntity
  8
0
  6
Continuous
 62
     7
370
    15
100
AcDbCircle
 10
738.3289350277
 20
1174.0914736395
 30
0.0
 40
95.0
100
AcDbArc
 50
90.0
 51
270.0
  0
LINE
  5
BB
330
1F
100
AcDbEntity
  8
0
  6
Continuous
 62
     7
370
    15
100
AcDbLine
 10
745.0925350277
 20
1018.5164736395
 30
0.0
 11
745.0925350277
 21
1329.6664736395
 31
0.0
  0
LINE
  5
BC
330
1F
100
AcDbEntity
  8
0
  6
Continuous
 62
     7
370
    15
100
AcDbLine
 10
739.1997350277001
 20
1174.0914736395
 30
0.0
 11
739.1997350277001
 21
1327.6664736395
 31
0.0
  0
LINE
  5
BD
330
1F
100
AcDbEntity
  8
0
  6
Continuous
 62
     7
370
    15
100
AcDbLine
 10
739.1997350277001
 20
1020.5164736395
 30
0.0
 11
739.1997350277001
 21
1174.0914736395
 31
0.0
  0
LINE
  5
BE
330
1F
100
AcDbEntity
  8
0
  6
Continuous
 62
     7
370
    15
100
AcDbLine
 10
904.7289414228
 20
1035.0178931361
 30
0.0
 11
745.1433351160001
 21
1035.0178931361
 31
0.0
  0
LINE
  5
BF
330
1F
100
AcDbEntity
  8
0
  6
Continuous
 62
     7
370
    15
100
AcDbLine
 10
745.0925351949
 20
1323.0572943097
 30
0.0
 11
745.1433350277
 21
1323.0572979673
 31
0.0
  0
LINE
  5
C0
330
1F
100
AcDbEntity
  8
0
  6
Continuous
 62
     7
370
    15
100
AcDbLine
 10
745.1433350277
 20
1262.7346016991
 30
0.0
 11
745.1433350277
 21
1323.0572979673
 31
0.0
  0
LINE
  5
C1
330
1F
100
AcDbEntity
  8
0
  6
Continuous
 62
     7
370
    15
100
AcDbLine
 10
745.1433350277
 20
1262.7346016991
 30
0.0
 11
745.0925351949
 21
1262.7345998292
 31
0.0
  0
LINE
  5
C2
330
1F
100
AcDbEntity
  8
0
  6
Continuous
 62
     7
370
    15
100
AcDbLine
 10
745.0925351949
 20
1251.1616576915
 30
0.0
 11
745.1433351160001
 21
1251.1616576915
 31
0.0
  0
LINE
  5
C3
330
1F
100
AcDbEntity
  8
0
  6
Continuous
 62
     7
370
    15
100
AcDbLine
 10
745.1433351160001
 20
1251.1616576915
 30
0.0
 11
745.1433350277
 21
1262.7346016991
 31
0.0
  0
LWPOLYLINE
  5
C4
330
1F
100
AcDbEntity
  8
0
  6
Continuous
 62
     7
370
    15
100
AcDbPolyline
 90
       53
 70
   128
 43
0.0
 10
782.3289332808
 20
1282.4910361772
 10
782.1146285058
 20
1282.4845541721
 10
781.9034492494
 20
1282.4652050143
 10
781.6984726013
 20
1282.4332643753
 10
781.5026899696
 20
1282.3892090922
 10
781.3189549267999
 20
1282.3336724644
 10
781.1499496819
 20
1282.2674666052
 10
780.9981329263
 20
1282.1915600901
 10
780.8657249333
 20
1282.107055605
 10
780.7546554029999
 20
1282.0151899462
 10
780.6665411116
 20
1281.9172967678
 10
780.6026672840999
 20
1281.8148140316
 10
780.5639652432001
 20
1281.7092244034
 10
780.551001233
 20
1281.6020701533
 10
780.5639652432001
 20
1281.4949159031
 10
780.6026672840999
 20
1281.3893262749
 10
780.6665411116
 20
1281.2868360882
 10
780.7546554029999
 20
1281.1889429098
 10
780.8657249333
 20
1281.097077251
 10
780.9981329263
 20
1281.0125727659
 10
781.1499496819
 20
1280.9366662507
 10
781.3189549267999
 20
1280.8704603916
 10
781.5026899696
 20
1280.8149312144
 10
781.6984726013
 20
1280.7708684807
 10
781.9034492494
 20
1280.7389352923
 10
782.1146285058
 20
1280.7195861345
 10
782.3289332808
 20
1280.7131041294
 10
782.5432417811001
 20
1280.7195861345
 10
782.7544210375
 20
1280.7389352923
 10
782.9593976855999
 20
1280.7708684807
 10
783.1551803172999
 20
1280.8149312144
 10
783.3389153600998
 20
1280.8704603916
 10
783.5079206049999
 20
1280.9366662507
 10
783.6597373605999
 20
1281.0125727659
 10
783.7921453537
 20
1281.097077251
 10
783.9032148839
 20
1281.1889429098
 10
783.9913291752999
 20
1281.2868360882
 10
784.0552030028
 20
1281.3893262749
 10
784.0939050436999
 20
1281.4949159031
 10
784.1068653287
 20
1281.6020701533
 10
784.0939050436999
 20
1281.7092244034
 10
784.0552030028
 20
1281.8148140316
 10
783.9913291752999
 20
1281.9172967678
 10
783.9032148839
 20
1282.0151899462
 10
783.7921453537
 20
1282.107055605
 10
783.6597373605999
 20
1282.1915600901
 10
783.5079206049999
 20
1282.2674666052
 10
783.3389153600998
 20
1282.3336724644
 10
783.1551803172999
 20
1282.3892090922
 10
782.9593976855999
 20
1282.4332643753
 10
782.7544210375
 20
1282.4652050143
 10
782.5432417811001
 20
1282.4845541721
 10
782.3289332808
 20
1282.4910361772
  0
LINE
  5
C5
330
1F
100
AcDbEntity
  8
0
  6
Continuous
 62
     7
370
    15
100
AcDbLine
 10
904.7289414228
 20
1250.5688671475
 30
0.0
 11
904.7289414228
 21
1312.9915003186
 31
0.0
  0
ARC
  5
C6
330
1F
100
AcDbEntity
  8
0
  6
Continuous
 62
     7
370
    15
100
AcDbCircle
 10
782.0771772407
 20
1280.1564303135
 30
0.0
 40
1.918185892862181
100
AcDbArc
 50
82.4583455165
 51
140.150060876
  0
ARC
  5
C7
330
1F
100
AcDbEntity
  8
0
  6
Continuous
 62
     7
370
    15
100
AcDbCircle
 10
782.534733683
 20
1280.0385773294
 30
0.0
 40
2.029905409488836
100
AcDbArc
 50
41.5727910889
 51
95.8188863146
  0
LINE
  5
C8
330
1F
100
AcDbEntity
  8
0
  6
Continuous
 62
     7
370
    15
100
AcDbLine
 10
904.7289414228
 20
1313.165054143
 30
0.0
 11
745.1433351160001
 21
1313.165054143
 31
0.0
  0
LINE
  5
C9
330
1F
100
AcDbEntity
  8
0
  6
Continuous
 62
     7
370
    15
100
AcDbLine
 10
745.0925351949
 20
1234.41416812
 30
0.0
 11
745.1433350277
 21
1234.4141699034
 31
0.0
  0
LINE
  5
CA
330
1F
100
AcDbEntity
  8
0
  6
Continuous
 62
     7
370
    15
100
AcDbLine
 10
745.1433350277
 20
1113.7687773707
 30
0.0
 11
745.0925351949
 21
1113.7687791591
 31
0.0
  0
LINE
  5
CB
330
1F
100
AcDbEntity
  8
0
  6
Continuous
 62
     7
370
    15
100
AcDbLine
 10
745.1433350277
 20
1113.7687773707
 30
0.0
 11
745.1433350277
 21
1234.4141699034
 31
0.0
  0
LINE
  5
CC
330
1F
100
AcDbEntity
  8
0
  6
Continuous
 62
     7
370
    15
100
AcDbLine
 10
745.0925351949
 20
1234.41416812
 30
0.0
 11
745.1433350277
 21
1234.4141699034
 31
0.0
  0
LINE
  5
CD
330
1F
100
AcDbEntity
  8
0
  6
Continuous
 62
     7
370
    15
100
AcDbLine
 10
778.7082677603999
 20
1108.8848118191
 30
0.0
 11
780.4463136378999
 21
1107.8491497788
 31
0.0
  0
ARC
  5
CE
330
1F
100
AcDbEntity
  8
0
  6
Continuous
 62
     7
370
    15
100
AcDbCircle
 10
781.0652584197001
 20
1109.0880000023
 30
0.0
 40
1.38486076942817
100
AcDbArc
 50
243.4526760977
 51
291.5377523228
  0
LINE
  5
CF
330
1F
100
AcDbEntity
  8
0
  6
Continuous
 62
     7
370
    15
100
AcDbLine
 10
781.5736610464999
 20
1107.7998347198
 30
0.0
 11
784.1597085714998
 21
1108.8848118191
 31
0.0
  0
LINE
  5
D0
330
1F
100
AcDbEntity
  8
0
  6
Continuous
 62
     7
370
    15
100
AcDbLine
 10
782.0878911342999
 20
1107.4934169425
 30
0.0
 11
785.0572911919
 21
1108.7392274743
 31
0.0
  0
ARC
  5
D1
330
1F
100
AcDbEntity
  8
0
  6
Continuous
 62
     7
370
    15
100
AcDbCircle
 10
781.0712113087999
 20
1110.0694308907
 30
0.0
 40
2.769384967136041
100
AcDbArc
 50
243.4528067229
 51
291.5377576133
  0
LINE
  5
D2
330
1F
100
AcDbEntity
  8
0
  6
Continuous
 62
     7
370
    15
100
AcDbLine
 10
777.953460616
 20
1108.7122936254
 30
0.0
 11
779.8334780833999
 21
1107.5920347349
 31
0.0
  0
ARC
  5
D3
330
1F
100
AcDbEntity
  8
0
  6
Continuous
 62
     7
370
    15
100
AcDbCircle
 10
781.0712084069999
 20
1101.8204765969
 30
0.0
 40
2.769324326797779
100
AcDbArc
 50
243.4522470164
 51
291.5383173199
  0
ELLIPSE
  5
D4
330
1F
100
AcDbEntity
  8
0
  6
Continuous
 62
     7
370
    15
100
AcDbEllipse
 10
784.5023587900999
 20
1100.9178588016
 30
0.0
 11
0.8676841468875409
 21
0.7945517246346298
 31
0.0
210
0.0
220
0.0
230
1.0
 40
0.6256558105
 41
4.895745186312387
 42
5.762913610344349
  0
LINE
  5
D5
330
1F
100
AcDbEntity
  8
0
  6
Continuous
 62
     7
370
    15
100
AcDbLine
 10
782.0878911342999
 20
1099.2445249715
 30
0.0
 11
785.1493468405
 21
1100.5289558773
 31
0.0
  0
LINE
  5
D6
330
1F
100
AcDbEntity
  8
0
  6
Continuous
 62
     7
370
    15
100
AcDbLine
 10
777.9054118217
 20
1100.4920307999
 30
0.0
 11
779.8334780833999
 21
1099.3431427639
 31
0.0
  0
ELLIPSE
  5
D7
330
1F
100
AcDbEntity
  8
0
  6
Continuous
 62
     7
370
    15
100
AcDbEllipse
 10
778.5524012888
 20
1100.7668510704
 30
0.0
 11
-0.8676841468874272
 21
0.9475478504637067
 31
0.0
210
0.0
220
0.0
230
0.9999999999999996
 40
0.5246340889
 41
0.5202716968352715
 42
1.387440120867284
  0
LINE
  5
D8
330
1F
100
AcDbEntity
  8
0
  6
Continuous
 62
     7
370
    15
100
AcDbLine
 10
904.7289414228
 20
1110.7544754153
 30
0.0
 11
904.7289414228
 21
1237.4284718638
 31
0.0
  0
LINE
  5
D9
330
1F
100
AcDbEntity
  8
0
  6
Continuous
 62
     7
370
    15
100
AcDbLine
 10
777.5524012888
 20
1108.0187852467
 30
0.0
 11
777.5524012888
 21
1101.0905820164
 31
0.0
  0
ARC
  5
DA
330
1F
100
AcDbEntity
  8
0
  6
Continuous
 62
     7
370
    15
100
AcDbCircle
 10
778.4552432774001
 20
1101.1429256104
 30
0.0
 40
0.9043598419247551
100
AcDbArc
 50
183.3181735045
 51
260.8530406049
  0
LINE
  5
DB
330
1F
100
AcDbEntity
  8
0
  6
Continuous
 62
     7
370
    15
100
AcDbLine
 10
784.4238018513999
 20
1100.2245549565
 30
0.0
 11
784.5023587900999
 21
1100.2245566127
 31
0.0
  0
ARC
  5
DC
330
1F
100
AcDbEntity
  8
0
  6
Continuous
 62
     7
370
    15
100
AcDbCircle
 10
784.5674240544
 20
1101.1597871853
 30
0.0
 40
0.937492953158452
100
AcDbArc
 50
266.0201680127
 51
355.7665248603
  0
LINE
  5
DD
330
1F
100
AcDbEntity
  8
0
  6
Continuous
 62
     7
370
    15
100
AcDbLine
 10
785.5023587900999
 20
1101.0905820164
 30
0.0
 11
785.5023587900999
 21
1108.0187852467
 31
0.0
  0
ARC
  5
DE
330
1F
100
AcDbEntity
  8
0
  6
Continuous
 62
     7
370
    15
100
AcDbCircle
 10
784.5622879849001
 20
1107.943648958
 30
0.0
 40
0.9430690581304753
100
AcDbArc
 50
4.569772080099999
 51
93.64353504700002
  0
LINE
  5
DF
330
1F
100
AcDbEntity
  8
0
  6
Continuous
 62
     7
370
    15
100
AcDbLine
 10
784.5023587900999
 20
1108.8848106505
 30
0.0
 11
778.5524012888
 21
1108.8848106505
 31
0.0
  0
ARC
  5
E0
330
1F
100
AcDbEntity
  8
0
  6
Continuous
 62
     7
370
    15
100
AcDbCircle
 10
778.4873360045
 20
1107.9495779774
 30
0.0
 40
0.9374944651802344
100
AcDbArc
 50
86.020260013
 51
175.7664328601
  0
LINE
  5
E1
330
1F
100
AcDbEntity
  8
0
  6
Continuous
 62
     7
370
    15
100
AcDbLine
 10
904.7289414228
 20
1099.0025926834
 30
0.0
 11
904.7289414228
 21
1110.1067740922
 31
0.0
  0
LWPOLYLINE
  5
E2
330
1F
100
AcDbEntity
  8
0
  6
Continuous
 62
     7
370
    15
100
AcDbPolyline
 90
       53
 70
   128
 43
0.0
 10
871.2289405883
 20
1245.6081513768
 10
871.4432341874999
 20
1245.5969233518
 10
871.6544283451
 20
1245.5634106403
 10
871.8593938172999
 20
1245.5080900794
 10
872.0551801742001
 20
1245.4317812329
 10
872.2389114917
 20
1245.3355942374
 10
872.407920462
 20
1245.2209223514
 10
872.5597334921999
 20
1245.0894494062
 10
872.6921452105999
 20
1244.9430827504
 10
872.8032184661
 20
1244.7839681511
 10
872.8913290322999
 20
1244.6144152885
 10
872.9552103102999
 20
1244.4368977552
 10
872.9939086258999
 20
1244.2540083533
 10
873.0068726362
 20
1244.0684143906
 10
872.9939086258999
 20
1243.8828204279
 10
872.9552103102999
 20
1243.699931026
 10
872.8913290322999
 20
1243.5224209433
 10
872.8032184661
 20
1243.3528606301
 10
872.6921452105999
 20
1243.1937460309
 10
872.5597334921999
 20
1243.047379375
 10
872.407920462
 20
1242.9159064298
 10
872.2389114917
 20
1242.8012345438
 10
872.0551801742001
 20
1242.7050475483
 10
871.8593938172999
 20
1242.6287387019
 10
871.6544283451
 20
1242.5734255915
 10
871.4432341874999
 20
1242.5399054294
 10
871.2289405883
 20
1242.5286774044
 10
871.0146320880999
 20
1242.5399054294
 10
870.8034528316
 20
1242.5734255915
 10
870.5984724582
 20
1242.6287387019
 10
870.4026861013002
 20
1242.7050475483
 10
870.2189547838001
 20
1242.8012345438
 10
870.0499458135
 20
1242.9159064298
 10
869.8981327833001
 20
1243.047379375
 10
869.7657210648999
 20
1243.1937460309
 10
869.6546478093999
 20
1243.3528606301
 10
869.5665372432001
 20
1243.5224209433
 10
869.5026708664
 20
1243.699931026
 10
869.4639725507
 20
1243.8828204279
 10
869.4510085405001
 20
1244.0684143906
 10
869.4639725507
 20
1244.2540083533
 10
869.5026708664
 20
1244.4368977552
 10
869.5665372432001
 20
1244.6144152885
 10
869.6546478093999
 20
1244.7839681511
 10
869.7657210648999
 20
1244.9430827504
 10
869.8981327833001
 20
1245.0894494062
 10
870.0499458135
 20
1245.2209223514
 10
870.2189547838001
 20
1245.3355942374
 10
870.4026861013002
 20
1245.4317812329
 10
870.5984724582
 20
1245.5080900794
 10
870.8034528316
 20
1245.5634106403
 10
871.0146320880999
 20
1245.5969233518
 10
871.2289405883
 20
1245.6081513768
  0
LINE
  5
E3
330
1F
100
AcDbEntity
  8
0
  6
Continuous
 62
     7
370
    15
100
AcDbLine
 10
904.7289414228
 20
1249.4809482699
 30
0.0
 11
745.0925351949
 21
1249.4809482699
 31
0.0
  0
LWPOLYLINE
  5
E4
330
1F
100
AcDbEntity
  8
0
  6
Continuous
 62
     7
370
    15
100
AcDbPolyline
 90
       53
 70
   128
 43
0.0
 10
775.9789338232001
 20
1245.6081513768
 10
776.1932423235
 20
1245.5969233518
 10
776.4044215799
 20
1245.5634106403
 10
776.609398228
 20
1245.5080900794
 10
776.8051808597
 20
1245.4317812329
 10
776.9889159025
 20
1245.3355942374
 10
777.1579211475
 20
1245.2209223514
 10
777.309737903
 20
1245.0894494062
 10
777.4421458961
 20
1244.9430827504
 10
777.5532154263
 20
1244.7839681511
 10
777.6413297177001
 20
1244.6144152885
 10
777.7052035451999
 20
1244.4368977552
 10
777.7439055861
 20
1244.2540083533
 10
777.7568658711
 20
1244.0684143906
 10
777.7439055861
 20
1243.8828204279
 10
777.7052035451999
 20
1243.699931026
 10
777.6413297177001
 20
1243.5224209433
 10
777.5532154263
 20
1243.3528606301
 10
777.4421458961
 20
1243.1937460309
 10
777.309737903
 20
1243.047379375
 10
777.1579211475
 20
1242.9159064298
 10
776.9889159025
 20
1242.8012345438
 10
776.8051808597
 20
1242.7050475483
 10
776.609398228
 20
1242.6287387019
 10
776.4044215799
 20
1242.5734255915
 10
776.1932423235
 20
1242.5399054294
 10
775.9789338232001
 20
1242.5286774044
 10
775.7646290482
 20
1242.5399054294
 10
775.5534497918
 20
1242.5734255915
 10
775.3484731436999
 20
1242.6287387019
 10
775.1526905119999
 20
1242.7050475483
 10
774.9689554691999
 20
1242.8012345438
 10
774.7999464989999
 20
1242.9159064298
 10
774.6481334686999
 20
1243.047379375
 10
774.5157254757
 20
1243.1937460309
 10
774.4046559453999
 20
1243.3528606301
 10
774.3165379287
 20
1243.5224209433
 10
774.2526678265
 20
1243.699931026
 10
774.2139657855999
 20
1243.8828204279
 10
774.2010017753999
 20
1244.0684143906
 10
774.2139657855999
 20
1244.2540083533
 10
774.2526678265
 20
1244.4368977552
 10
774.3165379287
 20
1244.6144152885
 10
774.4046559453999
 20
1244.7839681511
 10
774.5157254757
 20
1244.9430827504
 10
774.6481334686999
 20
1245.0894494062
 10
774.7999464989999
 20
1245.2209223514
 10
774.9689554691999
 20
1245.3355942374
 10
775.1526905119999
 20
1245.4317812329
 10
775.3484731436999
 20
1245.5080900794
 10
775.5534497918
 20
1245.5634106403
 10
775.7646290482
 20
1245.5969233518
 10
775.9789338232001
 20
1245.6081513768
  0
LINE
  5
E5
330
1F
100
AcDbEntity
  8
0
  6
Continuous
 62
     7
370
    15
100
AcDbLine
 10
904.7289414228
 20
1238.0761731868
 30
0.0
 11
904.7289414228
 21
1249.4809482699
 31
0.0
  0
ARC
  5
E6
330
1F
100
AcDbEntity
  8
0
  6
Continuous
 62
     7
370
    15
100
AcDbCircle
 10
871.2289331378
 20
1243.3595448815
 30
0.0
 40
1.822641836985881
100
AcDbArc
 50
15.2782366058
 51
164.7217633942
  0
ARC
  5
E7
330
1F
100
AcDbEntity
  8
0
  6
Continuous
 62
     7
370
    15
100
AcDbCircle
 10
775.9789338232001
 20
1243.3595384901
 30
0.0
 40
1.82264711479436
100
AcDbArc
 50
15.2783995628
 51
164.7216004372
  0
LINE
  5
E8
330
1F
100
AcDbEntity
  8
0
  6
Continuous
 62
     7
370
    15
100
AcDbLine
 10
745.0925351949
 20
1085.4483474498
 30
0.0
 11
745.1433350277
 21
1085.4483455757
 31
0.0
  0
LINE
  5
E9
330
1F
100
AcDbEntity
  8
0
  6
Continuous
 62
     7
370
    15
100
AcDbLine
 10
745.1433351160001
 20
1097.0212895875
 30
0.0
 11
745.0925351949
 21
1097.0212895875
 31
0.0
  0
LINE
  5
EA
330
1F
100
AcDbEntity
  8
0
  6
Continuous
 62
     7
370
    15
100
AcDbLine
 10
745.1433350277
 20
1085.4483455757
 30
0.0
 11
745.1433351160001
 21
1097.0212895875
 31
0.0
  0
LINE
  5
EB
330
1F
100
AcDbEntity
  8
0
  6
Continuous
 62
     7
370
    15
100
AcDbLine
 10
745.1433350277
 20
1025.1256493112
 30
0.0
 11
745.0925351949
 21
1025.1256529694
 31
0.0
  0
LINE
  5
EC
330
1F
100
AcDbEntity
  8
0
  6
Continuous
 62
     7
370
    15
100
AcDbLine
 10
745.1433350277
 20
1025.1256493112
 30
0.0
 11
745.1433350277
 21
1085.4483455757
 31
0.0
  0
LWPOLYLINE
  5
ED
330
1F
100
AcDbEntity
  8
0
  6
Continuous
 62
     7
370
    15
100
AcDbPolyline
 90
       53
 70
   128
 43
0.0
 10
782.3289332808
 20
1068.0279735928
 10
782.1146285058
 20
1068.0214915877
 10
781.9034492494
 20
1068.0021424299
 10
781.6984726013
 20
1067.9702017909
 10
781.5026899696
 20
1067.9261465078
 10
781.3189549267999
 20
1067.87060988
 10
781.1499496819
 20
1067.8044040208
 10
780.9981329263
 20
1067.7284975057
 10
780.8657249333
 20
1067.6440004712
 10
780.7546554029999
 20
1067.5521273618
 10
780.6665411116
 20
1067.4542416339
 10
780.6026672840999
 20
1067.3517514472
 10
780.5639652432001
 20
1067.246161819
 10
780.551001233
 20
1067.1390075689
 10
780.5639652432001
 20
1067.0318533187
 10
780.6026672840999
 20
1066.9262636905
 10
780.6665411116
 20
1066.8237735038
 10
780.7546554029999
 20
1066.7258803254
 10
780.8657249333
 20
1066.6340146666
 10
780.9981329263
 20
1066.5495101815
 10
781.1499496819
 20
1066.4736036663
 10
781.3189549267999
 20
1066.4074052577
 10
781.5026899696
 20
1066.35186863
 10
781.6984726013
 20
1066.3078058963
 10
781.9034492494
 20
1066.2758727079
 10
782.1146285058
 20
1066.2565235501
 10
782.3289332808
 20
1066.250041545
 10
782.5432417811001
 20
1066.2565235501
 10
782.7544210375
 20
1066.2758727079
 10
782.9593976855999
 20
1066.3078058963
 10
783.1551803172999
 20
1066.35186863
 10
783.3389153600998
 20
1066.4074052577
 10
783.5079206049999
 20
1066.4736036663
 10
783.6597373605999
 20
1066.5495101815
 10
783.7921453537
 20
1066.6340146666
 10
783.9032148839
 20
1066.7258803254
 10
783.9913291752999
 20
1066.8237735038
 10
784.0552030028
 20
1066.9262636905
 10
784.0939050436999
 20
1067.0318533187
 10
784.1068653287
 20
1067.1390075689
 10
784.0939050436999
 20
1067.246161819
 10
784.0552030028
 20
1067.3517514472
 10
783.9913291752999
 20
1067.4542416339
 10
783.9032148839
 20
1067.5521273618
 10
783.7921453537
 20
1067.6440004712
 10
783.6597373605999
 20
1067.7284975057
 10
783.5079206049999
 20
1067.8044040208
 10
783.3389153600998
 20
1067.87060988
 10
783.1551803172999
 20
1067.9261465078
 10
782.9593976855999
 20
1067.9702017909
 10
782.7544210375
 20
1068.0021424299
 10
782.5432417811001
 20
1068.0214915877
 10
782.3289332808
 20
1068.0279735928
  0
LINE
  5
EE
330
1F
100
AcDbEntity
  8
0
  6
Continuous
 62
     7
370
    15
100
AcDbLine
 10
904.7289414228
 20
1036.1058120137
 30
0.0
 11
904.7289414228
 21
1098.5284451848
 31
0.0
  0
ARC
  5
EF
330
1F
100
AcDbEntity
  8
0
  6
Continuous
 62
     7
370
    15
100
AcDbCircle
 10
782.3289351435001
 20
1069.0066620877
 30
0.0
 40
2.387433284148819
100
AcDbArc
 50
223.7568712361
 51
316.2431287639
  0
LINE
  5
F0
330
1F
100
AcDbEntity
  8
0
  6
Continuous
 62
     7
370
    15
100
AcDbLine
 10
904.7289414228
 20
1035.9322581892
 30
0.0
 11
745.1433351160001
 21
1035.9322581892
 31
0.0
  0
LINE
  5
F1
330
1F
100
AcDbEntity
  8
0
  6
Continuous
 62
     7
370
    15
100
AcDbLine
 10
906.3289387048
 20
1237.7755720621
 30
0.0
 11
904.7289414228
 21
1237.7755720621
 31
0.0
  0
LINE
  5
F2
330
1F
100
AcDbEntity
  8
0
  6
Continuous
 62
     7
370
    15
100
AcDbLine
 10
906.3289387048
 20
1110.407375217
 30
0.0
 11
904.7289414228
 21
1110.407375217
 31
0.0
  0
LINE
  5
F3
330
1F
100
AcDbEntity
  8
0
  6
Continuous
 62
     7
370
    15
100
AcDbLine
 10
906.3289387048
 20
1237.7755720621
 30
0.0
 11
906.3289387048
 21
1110.407375217
 31
0.0
  0
LINE
  5
F4
330
1F
100
AcDbEntity
  8
0
  6
Continuous
 62
     7
370
    15
100
AcDbLine
 10
904.7289414228
 20
1237.7755720621
 30
0.0
 11
904.7289414228
 21
1110.407375217
 31
0.0
  0
LINE
  5
F5
330
1F
100
AcDbEntity
  8
0
  6
Continuous
 62
     7
370
    15
100
AcDbLine
 10
906.3289387048
 20
1098.7019915586
 30
0.0
 11
904.7289414228
 21
1098.7019915586
 31
0.0
  0
LINE
  5
F6
330
1F
100
AcDbEntity
  8
0
  6
Continuous
 62
     7
370
    15
100
AcDbLine
 10
906.3289387048
 20
1110.407375217
 30
0.0
 11
906.3289387048
 21
1098.7019915586
 31
0.0
  0
LINE
  5
F7
330
1F
100
AcDbEntity
  8
0
  6
Continuous
 62
     7
370
    15
100
AcDbLine
 10
904.7289414228
 20
1110.407375217
 30
0.0
 11
904.7289414228
 21
1098.7019915586
 31
0.0
  0
LINE
  5
F8
330
1F
100
AcDbEntity
  8
0
  6
Continuous
 62
     7
370
    15
100
AcDbLine
 10
906.3289387048
 20
1249.4809482699
 30
0.0
 11
904.7289414228
 21
1249.4809482699
 31
0.0
  0
LINE
  5
F9
330
1F
100
AcDbEntity
  8
0
  6
Continuous
 62
     7
370
    15
100
AcDbLine
 10
906.3289387048
 20
1249.4809482699
 30
0.0
 11
906.3289387048
 21
1237.7755720621
 31
0.0
  0
LINE
  5
FA
330
1F
100
AcDbEntity
  8
0
  6
Continuous
 62
     7
370
    15
100
AcDbLine
 10
904.7289414228
 20
1249.4809482699
 30
0.0
 11
904.7289414228
 21
1237.7755720621
 31
0.0
  0
LINE
  5
FB
330
1F
100
AcDbEntity
  8
0
  6
Continuous
 62
     7
370
    15
100
AcDbLine
 10
906.3289387048
 20
1313.165054143
 30
0.0
 11
904.7289414228
 21
1313.165054143
 31
0.0
  0
LINE
  5
FC
330
1F
100
AcDbEntity
  8
0
  6
Continuous
 62
     7
370
    15
100
AcDbLine
 10
906.3289387048
 20
1313.165054143
 30
0.0
 11
906.3289387048
 21
1249.4809482699
 31
0.0
  0
LINE
  5
FD
330
1F
100
AcDbEntity
  8
0
  6
Continuous
 62
     7
370
    15
100
AcDbLine
 10
904.7289414228
 20
1313.165054143
 30
0.0
 11
904.7289414228
 21
1249.4809482699
 31
0.0
  0
LINE
  5
FE
330
1F
100
AcDbEntity
  8
0
  6
Continuous
 62
     7
370
    15
100
AcDbLine
 10
906.3289387048
 20
1035.0178931361
 30
0.0
 11
904.7289414228
 21
1035.0178931361
 31
0.0
  0
LINE
  5
FF
330
1F
100
AcDbEntity
  8
0
  6
Continuous
 62
     7
370
    15
100
AcDbLine
 10
906.3289387048
 20
1098.7019915586
 30
0.0
 11
906.3289387048
 21
1035.0178931361
 31
0.0
  0
LINE
  5
100
330
1F
100
AcDbEntity
  8
0
  6
Continuous
 62
     7
370
    15
100
AcDbLine
 10
904.7289414228
 20
1098.7019915586
 30
0.0
 11
904.7289414228
 21
1035.0178931361
 31
0.0
  0
LINE
  5
101
330
1F
100
AcDbEntity
  8
0
  6
Continuous
 62
     7
370
    15
100
AcDbLine
 10
910.3289350277
 20
1174.0914736395
 30
0.0
 11
910.3289350277
 21
1169.0432236395
 31
0.0
  0
LINE
  5
102
330
1F
100
AcDbEntity
  8
0
  6
Continuous
 62
     7
370
    15
100
AcDbLine
 10
910.3289350277
 20
1179.1397236395
 30
0.0
 11
910.3289350277
 21
1174.0914736395
 31
0.0
  0
LINE
  5
103
330
1F
100
AcDbEntity
  8
0
  6
Continuous
 62
     7
370
    15
100
AcDbLine
 10
911.3289350277
 20
1174.0914736395
 30
0.0
 11
911.3289350277
 21
1170.0698154395
 31
0.0
  0
LINE
  5
104
330
1F
100
AcDbEntity
  8
0
  6
Continuous
 62
     7
370
    15
100
AcDbLine
 10
911.3289350277
 20
1178.1131318395
 30
0.0
 11
911.3289350277
 21
1174.0914736395
 31
0.0
  0
LINE
  5
105
330
1F
100
AcDbEntity
  8
0
  6
Continuous
 62
     7
370
    15
100
AcDbLine
 10
781.5736610464999
 20
1314.9236434501
 30
0.0
 11
783.6694678188
 21
1313.165054143
 31
0.0
  0
ARC
  5
106
330
1F
100
AcDbEntity
  8
0
  6
Continuous
 62
     7
370
    15
100
AcDbCircle
 10
781.0593024013001
 20
1314.3106546867
 30
0.0
 40
0.8002000000005009
100
AcDbArc
 50
50.0
 51
140.0
  0
LINE
  5
107
330
1F
100
AcDbEntity
  8
0
  6
Continuous
 62
     7
370
    15
100
AcDbLine
 10
779.0534419836
 20
1313.165054143
 30
0.0
 11
780.4463136378999
 21
1314.825013332
 31
0.0
  0
LINE
  5
108
330
1F
100
AcDbEntity
  8
0
  6
Continuous
 62
     7
370
    15
100
AcDbLine
 10
778.009116453
 20
1313.165054143
 30
0.0
 11
779.8334780833999
 21
1315.3392434198
 31
0.0
  0
ARC
  5
109
330
1F
100
AcDbEntity
  8
0
  6
Continuous
 62
     7
370
    15
100
AcDbCircle
 10
781.0593024013001
 20
1314.3106546867
 30
0.0
 40
1.600200000000508
100
AcDbArc
 50
50.0
 51
140.0
  0
LINE
  5
10A
330
1F
100
AcDbEntity
  8
0
  6
Continuous
 62
     7
370
    15
100
AcDbLine
 10
782.0878911342999
 20
1315.5364790046
 30
0.0
 11
784.9140463293999
 21
1313.165054143
 31
0.0
  0
LINE
  5
10B
330
1F
100
AcDbEntity
  8
0
  6
Continuous
 62
     7
370
    15
100
AcDbLine
 10
787.7629733404
 20
1174.0914736395
 30
0.0
 11
787.7629733404
 21
1169.7734736395
 31
0.0
  0
LINE
  5
10C
330
1F
100
AcDbEntity
  8
0
  6
Continuous
 62
     7
370
    15
100
AcDbLine
 10
787.7629733404
 20
1178.4094736395
 30
0.0
 11
787.7629733404
 21
1174.0914736395
 31
0.0
  0
LINE
  5
10D
330
1F
100
AcDbEntity
  8
0
  6
Continuous
 62
     7
370
    15
100
AcDbLine
 10
807.4769733403998
 20
1174.0914736395
 30
0.0
 11
807.4769733403998
 21
1171.6784736395
 31
0.0
  0
LINE
  5
10E
330
1F
100
AcDbEntity
  8
0
  6
Continuous
 62
     7
370
    15
100
AcDbLine
 10
807.4769733403998
 20
1176.5044736395
 30
0.0
 11
807.4769733403998
 21
1174.0914736395
 31
0.0
  0
LINE
  5
10F
330
1F
100
AcDbEntity
  8
0
  6
Continuous
 62
     7
370
    15
100
AcDbLine
 10
785.4769733403998
 20
1230.7746001809
 30
0.0
 11
784.2577733403999
 21
1230.7746001809
 31
0.0
  0
LINE
  5
110
330
1F
100
AcDbEntity
  8
0
  6
Continuous
 62
     7
370
    15
100
AcDbLine
 10
785.4769733403998
 20
1210.498196115
 30
0.0
 11
785.4769733403998
 21
1230.7746001809
 31
0.0
  0
LINE
  5
111
330
1F
100
AcDbEntity
  8
0
  6
Continuous
 62
     7
370
    15
100
AcDbLine
 10
785.4769733403998
 20
1210.498196115
 30
0.0
 11
784.2577733403999
 21
1210.498196115
 31
0.0
  0
LINE
  5
112
330
1F
100
AcDbEntity
  8
0
  6
Continuous
 62
     7
370
    15
100
AcDbLine
 10
784.2577733403999
 20
1210.498196115
 30
0.0
 11
784.2577733403999
 21
1230.7746001809
 31
0.0
  0
LINE
  5
113
330
1F
100
AcDbEntity
  8
0
  6
Continuous
 62
     7
370
    15
100
AcDbLine
 10
785.4769733403998
 20
1137.1200016542
 30
0.0
 11
784.2577733403999
 21
1137.1200016542
 31
0.0
  0
LINE
  5
114
330
1F
100
AcDbEntity
  8
0
  6
Continuous
 62
     7
370
    15
100
AcDbLine
 10
784.2577733403999
 20
1137.1200016542
 30
0.0
 11
784.2577733403999
 21
1210.498196115
 31
0.0
  0
LINE
  5
115
330
1F
100
AcDbEntity
  8
0
  6
Continuous
 62
     7
370
    15
100
AcDbLine
 10
785.4769733403998
 20
1137.1200016542
 30
0.0
 11
785.4769733403998
 21
1210.498196115
 31
0.0
  0
LINE
  5
116
330
1F
100
AcDbEntity
  8
0
  6
Continuous
 62
     7
370
    15
100
AcDbLine
 10
785.4769733403998
 20
1116.8638097904
 30
0.0
 11
784.2577733403999
 21
1116.8638097904
 31
0.0
  0
LINE
  5
117
330
1F
100
AcDbEntity
  8
0
  6
Continuous
 62
     7
370
    15
100
AcDbLine
 10
784.2577733403999
 20
1116.8638097904
 30
0.0
 11
784.2577733403999
 21
1137.1200016542
 31
0.0
  0
LINE
  5
118
330
1F
100
AcDbEntity
  8
0
  6
Continuous
 62
     7
370
    15
100
AcDbLine
 10
785.4769733403998
 20
1116.8638097904
 30
0.0
 11
785.4769733403998
 21
1137.1200016542
 31
0.0
  0
LINE
  5
119
330
1F
100
AcDbEntity
  8
0
  6
Continuous
 62
     7
370
     0
100
AcDbLine
 10
904.7289414228
 20
1250.5688671475
 30
0.0
 11
745.0925351949
 21
1250.5688671475
 31
0.0
  0
LINE
  5
11A
330
1F
100
AcDbEntity
  8
0
  6
PHANTOM
 62
     7
370
     0
100
AcDbLine
 10
782.0878911342999
 20
1107.4934169425
 30
0.0
 11
782.0878911342999
 21
1099.2445249715
 31
0.0
  0
LINE
  5
11B
330
1F
100
AcDbEntity
  8
0
  6
PHANTOM
 62
     7
370
     0
100
AcDbLine
 10
779.8334780833999
 20
1107.5920347349
 30
0.0
 11
779.8334780833999
 21
1099.3431427639
 31
0.0
  0
LINE
  5
11C
330
1F
100
AcDbEntity
  8
0
  6
Continuous
 62
     7
370
     0
100
AcDbLine
 10
904.7289414228
 20
1237.4284718638
 30
0.0
 11
745.0925351949
 21
1237.4284718638
 31
0.0
  0
LINE
  5
11D
330
1F
100
AcDbEntity
  8
0
  6
Continuous
 62
     7
370
     0
100
AcDbLine
 10
904.7289414228
 20
1110.7544754153
 30
0.0
 11
745.0925351949
 21
1110.7544754153
 31
0.0
  0
LINE
  5
11E
330
1F
100
AcDbEntity
  8
0
  6
PHANTOM
 62
     7
370
     0
100
AcDbLine
 10
784.5023570479
 20
1100.257516325
 30
0.0
 11
784.5023587900999
 21
1100.2245566127
 31
0.0
  0
LINE
  5
11F
330
1F
100
AcDbEntity
  8
0
  6
Continuous
 62
     7
370
     0
100
AcDbLine
 10
904.7289414228
 20
1098.5284451848
 30
0.0
 11
745.0925351949
 21
1098.5284451848
 31
0.0
  0
DIMENSION
  5
120
330
1F
100
AcDbEntity
  8
WAKU
 62
     7
100
AcDbDimension
  2
*D5
 10
906.3289350277001
 20
973.5348966613999
 30
0.0
 11
825.7107350276999
 21
973.5348966613999
 31
0.0
 70
   160
 42
161.2364
  3
SLDDIMSTYLE1
100
AcDbAlignedDimension
 13
745.0925350277
 23
1018.5164736395
 33
0.0
 14
906.3289350277001
 24
1035.0178936229
 34
0.0
100
AcDbRotatedDimension
1001
ACAD
1000
DSTYLE
1002
{
1070
    77
1070
     3
1070
   143
1040
0.0393700787
1070
    41
1040
10.0
1070
    44
1040
5.0
1070
    42
1040
5.0
1070
   147
1040
7.62
1070
    73
1070
     0
1070
    74
1070
     0
1070
   140
1040
17.6388888889
1070
   284
1070
    12
1070
    78
1070
    12
1002
}
  0
DIMENSION
  5
13B
330
1F
100
AcDbEntity
  8
WAKU
 62
     7
100
AcDbDimension
  2
*D6
 10
977.151006595
 20
1312.9915029635
 30
0.0
 11
977.151006595
 21
1174.0046982932
 31
0.0
 70
   160
 42
277.9736093405
  3
SLDDIMSTYLE1
100
AcDbAlignedDimension
 13
906.3289350277001
 23
1035.0178936229
 33
0.0
 14
904.7289350276999
 24
1312.9915029635
 34
0.0
 50
90.0
100
AcDbRotatedDimension
1001
ACAD
1000
DSTYLE
1002
{
1070
    77
1070
     3
1070
   143
1040
0.0393700787
1070
    41
1040
10.0
1070
    44
1040
5.0
1070
    42
1040
5.0
1070
   147
1040
7.62
1070
    73
1070
     0
1070
    74
1070
     0
1070
   140
1040
17.6388888889
1070
   284
1070
    12
1070
    78
1070
    12
1002
}
  0
DIMENSION
  5
156
330
1F
100
AcDbEntity
  8
WAKU
 62
     7
100
AcDbDimension
  2
*D7
 10
738.3289350277
 20
1174.0914736395
 30
0.0
 11
628.5379534927999
 21
1304.8465938039
 31
0.0
 70
   164
  1
<>
 42
475.0
  3
SLDDIMSTYLE2
100
AcDbRadialDimension
 15
691.6071652688
 25
1256.808317333
 35
0.0
 40
0.0
1001
ACAD
1000
DSTYLE
1002
{
1070
    77
1070
     0
1070
   143
1040
0.0393700787
1070
    41
1040
10.0
1070
    44
1040
5.0
1070
    42
1040
5.0
1070
   147
1040
7.62
1070
    73
1070
     1
1070
    74
1070
     1
1070
   140
1040
17.6388888889
1070
   284
1070
    12
1070
    78
1070
    12
1002
}
  0
DIMENSION
  5
170
330
1F
100
AcDbEntity
  8
WAKU
 62
     7
100
AcDbDimension
  2
*D8
 10
906.3289350277001
 20
925.1133107454
 30
0.0
 11
774.8289350277
 21
925.1133107454
 31
0.0
 70
   160
 42
263.0
  3
SLDDIMSTYLE1
100
AcDbAlignedDimension
 13
643.3289350276999
 23
1174.0914736395
 33
0.0
 14
906.3289350277001
 24
1035.0178936229
 34
0.0
100
AcDbRotatedDimension
1001
ACAD
1000
DSTYLE
1002
{
1070
    77
1070
     3
1070
   143
1040
0.0393700787
1070
    41
1040
10.0
1070
    44
1040
5.0
1070
    42
1040
5.0
1070
   147
1040
7.62
1070
    73
1070
     0
1070
    74
1070
     0
1070
   140
1040
17.6388888889
1070
   284
1070
    12
1070
    78
1070
    12
1002
}
  0
DIMENSION
  5
18A
330
1F
100
AcDbEntity
  8
WAKU
 62
     7
100
AcDbDimension
  2
*D9
 10
619.8352241892999
 20
1079.0914736395
 30
0.0
 11
619.8352241892999
 21
1174.0914736395
 31
0.0
 70
   160
  1
%%c<>
 42
190.0
  3
SLDDIMSTYLE3
100
AcDbAlignedDimension
 13
738.3289350277
 23
1269.0914736395
 33
0.0
 14
738.3289350277
 24
1079.0914736395
 34
0.0
 50
90.0
100
AcDbRotatedDimension
1001
ACAD
1000
DSTYLE
1002
{
1070
    77
1070
     3
1070
   143
1040
0.0393700787
1070
    41
1040
10.0
1070
    44
1040
5.0
1070
    42
1040
5.0
1070
   147
1040
7.62
1070
    73
1070
     0
1070
    74
1070
     0
1070
   140
1040
17.6388888889
1070
   284
1070
    12
1070
    78
1070
    12
1002
}
  0
CIRCLE
  5
1A7
330
1F
100
AcDbEntity
  8
WAKU
  6
PHANTOM
 62
     7
370
     0
100
AcDbCircle
 10
361.7324036768
 20
726.4880263352999
 30
0.0
 40
141.9999999999999
  0
LINE
  5
1A8
330
1F
100
AcDbEntity
  8
0
  6
Continuous
 62
     7
370
    15
100
AcDbLine
 10
236.5319669409
 20
659.7027817972
 30
0.0
 11
241.2944669409
 21
651.4538898261999
 31
0.0
  0
LINE
  5
1A9
330
1F
100
AcDbEntity
  8
0
  6
Continuous
 62
     7
370
    15
100
AcDbLine
 10
366.4949036768
 20
868.3074073824998
 30
0.0
 11
356.9699036768
 21
868.3074073824998
 31
0.0
  0
LINE
  5
1AA
330
1F
100
AcDbEntity
  8
0
  6
Continuous
 62
     7
370
    15
100
AcDbLine
 10
482.1703404126
 20
651.4538898261999
 30
0.0
 11
486.9328404126
 21
659.7027817972
 31
0.0
  0
ARC
  5
1AB
330
1F
100
AcDbEntity
  8
0
  6
Continuous
 62
     7
370
    15
100
AcDbCircle
 10
361.7324036768
 20
726.4880263352999
 30
0.0
 40
155.5749999999999
100
AcDbArc
 50
200.9748058963
 51
360.0
  0
ARC
  5
1AC
330
1F
100
AcDbEntity
  8
0
  6
Continuous
 62
     7
370
    15
100
AcDbCircle
 10
361.7324036768
 20
726.4880263352999
 30
0.0
 40
155.575
100
AcDbArc
 50
360.0
 51
159.2717121535
  0
ARC
  5
1AD
330
1F
100
AcDbEntity
  8
0
  6
Continuous
 62
     7
370
    15
100
AcDbCircle
 10
361.7324036768
 20
726.4880263352999
 30
0.0
 40
154.375
100
AcDbArc
 50
201.2806844158
 51
360.0
  0
ARC
  5
1AE
330
1F
100
AcDbEntity
  8
0
  6
Continuous
 62
     7
370
    15
100
AcDbCircle
 10
361.7324036768
 20
726.4880263352999
 30
0.0
 40
154.375
100
AcDbArc
 50
360.0
 51
158.9658336339
  0
LINE
  5
1AF
330
1F
100
AcDbEntity
  8
0
  6
Continuous
 62
     7
370
    15
100
AcDbLine
 10
498.9159963019
 20
666.1653300714
 30
0.0
 11
485.5527085473999
 21
666.1653318548999
 31
0.0
  0
CIRCLE
  5
1B0
330
1F
100
AcDbEntity
  8
0
  6
Continuous
 62
     7
370
    15
100
AcDbCircle
 10
506.1934141773
 20
725.8320145986
 30
0.0
 40
3.378199999999993
  0
ARC
  5
1B1
330
1F
100
AcDbEntity
  8
0
  6
Continuous
 62
     7
370
    15
100
AcDbCircle
 10
361.7324036768
 20
726.4880263352999
 30
0.0
 40
149.8604876880404
100
AcDbArc
 50
336.2638331776
 51
23.7361668244
  0
LINE
  5
1B2
330
1F
100
AcDbEntity
  8
0
  6
Continuous
 62
     7
370
    15
100
AcDbLine
 10
485.5527085473999
 20
786.8107208157
 30
0.0
 11
498.9159962998
 21
786.8107226041001
 31
0.0
  0
ARC
  5
1B3
330
1F
100
AcDbEntity
  8
0
  6
Continuous
 62
     7
370
    15
100
AcDbCircle
 10
361.7324036768
 20
726.4880263352999
 30
0.0
 40
149.8604876880403
100
AcDbArc
 50
276.2638331775999
 51
323.7361668244
  0
LINE
  5
1B4
330
1F
100
AcDbEntity
  8
0
  6
Continuous
 62
     7
370
    15
100
AcDbLine
 10
378.0832126
 20
577.5222020076
 30
0.0
 11
371.4015697351
 21
589.0951478028999
 31
0.0
  0
LINE
  5
1B5
330
1F
100
AcDbEntity
  8
0
  6
Continuous
 62
     7
370
    15
100
AcDbLine
 10
475.8835462144
 20
649.4178422833
 30
0.0
 11
482.5651873817999
 21
637.8448982757999
 31
0.0
  0
ARC
  5
1B6
330
1F
100
AcDbEntity
  8
0
  6
Continuous
 62
     7
370
    15
100
AcDbCircle
 10
361.7324036768
 20
726.4880263352999
 30
0.0
 40
149.8604876880405
100
AcDbArc
 50
36.26383317760001
 51
83.73616682439999
  0
LINE
  5
1B7
330
1F
100
AcDbEntity
  8
0
  6
Continuous
 62
     7
370
    15
100
AcDbLine
 10
482.5651873787
 20
815.1311543991999
 30
0.0
 11
475.8835462144
 21
803.5582103872998
 31
0.0
  0
LINE
  5
1B8
330
1F
100
AcDbEntity
  8
0
  6
Continuous
 62
     7
370
    15
100
AcDbLine
 10
371.4015697351
 20
863.8809048677
 30
0.0
 11
378.0832125947
 21
875.4538506637
 31
0.0
  0
LINE
  5
1B9
330
1F
100
AcDbEntity
  8
0
  6
Continuous
 62
     7
370
    15
100
AcDbLine
 10
247.5812611392
 20
803.5582103872998
 30
0.0
 11
240.8996199717
 21
815.1311543949001
 31
0.0
  0
CIRCLE
  5
1BA
330
1F
100
AcDbEntity
  8
0
  6
Continuous
 62
     7
370
    15
100
AcDbCircle
 10
290.0700212557
 20
851.9229371536001
 30
0.0
 40
3.378200000000047
  0
ARC
  5
1BB
330
1F
100
AcDbEntity
  8
0
  6
Continuous
 62
     7
370
    15
100
AcDbCircle
 10
361.7324036768
 20
726.4880263352999
 30
0.0
 40
149.8604876880405
100
AcDbArc
 50
96.26383317760002
 51
143.7361668244
  0
LINE
  5
1BC
330
1F
100
AcDbEntity
  8
0
  6
Continuous
 62
     7
370
    15
100
AcDbLine
 10
345.3815947535
 20
875.4538506631
 30
0.0
 11
352.0632376185
 21
863.8809048677
 31
0.0
  0
LINE
  5
1BD
330
1F
100
AcDbEntity
  8
0
  6
Continuous
 62
     7
370
    15
100
AcDbLine
 10
241.6186857922
 20
651.6410776673
 30
0.0
 11
243.672403436
 21
652.8267883802
 31
0.0
  0
LINE
  5
1BE
330
1F
100
AcDbEntity
  8
0
  6
Continuous
 62
     7
370
    15
100
AcDbLine
 10
236.8561857922
 20
659.8899696383
 30
0.0
 11
238.9099029114
 21
661.075683787
 31
0.0
  0
LWPOLYLINE
  5
1BF
330
1F
100
AcDbEntity
  8
0
  6
Continuous
 62
     7
370
    15
100
AcDbPolyline
 90
        7
 70
   128
 43
0.0
 10
241.2944686821
 20
651.4538922454
 10
241.2957874348
 20
651.4546522045999
 10
241.3155240228
 20
651.4660441423
 10
241.3586032798
 20
651.4909216308999
 10
241.4243099501
 20
651.5288525368
 10
241.5114966443
 20
651.5791886593
 10
241.6186881473
 20
651.6410806323
  0
LWPOLYLINE
  5
1C0
330
1F
100
AcDbEntity
  8
0
  6
Continuous
 62
     7
370
    15
100
AcDbPolyline
 90
        7
 70
   128
 43
0.0
 10
236.5319681575
 20
659.7027802014999
 10
236.5332794597
 20
659.7035401607
 10
236.5530234983
 20
659.7149395490999
 10
236.5961027553
 20
659.7398095871
 10
236.661801975
 20
659.7777479434999
 10
236.7489961198
 20
659.828084066
 10
236.8561876228
 20
659.8899685883999
  0
LINE
  5
1C1
330
1F
100
AcDbEntity
  8
0
  6
Continuous
 62
     7
370
    15
100
AcDbLine
 10
237.9120988062
 20
666.1653318548999
 30
0.0
 11
224.5488110537
 21
666.1653300665
 31
0.0
  0
ARC
  5
1C2
330
1F
100
AcDbEntity
  8
0
  6
Continuous
 62
     7
370
    15
100
AcDbCircle
 10
361.7324036768
 20
726.4880263352999
 30
0.0
 40
149.8604876880403
100
AcDbArc
 50
202.3378276631
 51
203.7361668244
  0
ARC
  5
1C3
330
1F
100
AcDbEntity
  8
0
  6
Continuous
 62
     7
370
    15
100
AcDbCircle
 10
361.7324036768
 20
726.4880263352999
 30
0.0
 40
149.8604876880404
100
AcDbArc
 50
156.2638331776
 51
157.9086903867
  0
LINE
  5
1C4
330
1F
100
AcDbEntity
  8
0
  6
Continuous
 62
     7
370
    15
100
AcDbLine
 10
224.5488110516
 20
786.8107225991999
 30
0.0
 11
237.9120988062
 21
786.8107208157
 31
0.0
  0
LINE
  5
1C5
330
1F
100
AcDbEntity
  8
0
  6
Continuous
 62
     7
370
    15
100
AcDbLine
 10
352.0632376185
 20
589.0951478028999
 30
0.0
 11
345.3815947588
 21
577.5222020069999
 31
0.0
  0
ARC
  5
1C6
330
1F
100
AcDbEntity
  8
0
  6
Continuous
 62
     7
370
    15
100
AcDbCircle
 10
361.7324036768
 20
726.4880263352999
 30
0.0
 40
149.8604876880403
100
AcDbArc
 50
216.2638331776
 51
263.7361668243999
  0
CIRCLE
  5
1C7
330
1F
100
AcDbEntity
  8
0
  6
Continuous
 62
     7
370
    15
100
AcDbCircle
 10
288.9337755973
 20
601.7091272537999
 30
0.0
 40
3.37819999999999
  0
LINE
  5
1C8
330
1F
100
AcDbEntity
  8
0
  6
Continuous
 62
     7
370
    15
100
AcDbLine
 10
240.8996199749
 20
637.8448982715
 30
0.0
 11
247.5812611392
 21
649.4178422833
 31
0.0
  0
CIRCLE
  5
1C9
330
1F
100
AcDbEntity
  8
0
  6
Continuous
 62
     7
370
    15
100
AcDbCircle
 10
361.7324036768
 20
726.4880263352999
 30
0.0
 40
3.174999999999955
  0
CIRCLE
  5
1CA
330
1F
100
AcDbEntity
  8
0
  6
Continuous
 62
     7
370
    15
100
AcDbCircle
 10
361.7324036768
 20
726.4880263352999
 30
0.0
 40
4.02165819999999
  0
CIRCLE
  5
1CB
330
1F
100
AcDbEntity
  8
0
  6
Continuous
 62
     7
370
    15
100
AcDbCircle
 10
361.7324036768
 20
726.4880263352999
 30
0.0
 40
5.048249999999995
  0
LINE
  5
1CC
330
1F
100
AcDbEntity
  8
0
  6
Continuous
 62
     7
370
    15
100
AcDbLine
 10
355.7324036768
 20
621.4880263352999
 30
0.0
 11
367.7324036768
 21
621.4880263352999
 31
0.0
  0
ARC
  5
1CD
330
1F
100
AcDbEntity
  8
0
  6
Continuous
 62
     7
370
    15
100
AcDbCircle
 10
355.7324036768
 20
620.4880263353
 30
0.0
 40
1.0
100
AcDbArc
 50
90.0
 51
270.0
  0
LINE
  5
1CE
330
1F
100
AcDbEntity
  8
0
  6
Continuous
 62
     7
370
    15
100
AcDbLine
 10
367.7324036768
 20
619.4880263353
 30
0.0
 11
355.7324036768
 21
619.4880263353
 31
0.0
  0
ARC
  5
1CF
330
1F
100
AcDbEntity
  8
0
  6
Continuous
 62
     7
370
    15
100
AcDbCircle
 10
367.7324036768
 20
620.4880263353
 30
0.0
 40
1.000000000000113
100
AcDbArc
 50
270.0
 51
90.0
  0
LINE
  5
1D0
330
1F
100
AcDbEntity
  8
0
  6
Continuous
 62
     7
370
    15
100
AcDbLine
 10
485.5527085473999
 20
790.1721322083999
 30
0.0
 11
478.7946072629
 21
801.8775084163001
 31
0.0
  0
LINE
  5
1D1
330
1F
100
AcDbEntity
  8
0
  6
Continuous
 62
     7
370
    15
100
AcDbLine
 10
485.5527085473999
 20
662.8039279128
 30
0.0
 11
485.5527085473999
 21
790.1721322083999
 31
0.0
  0
LINE
  5
1D2
330
1F
100
AcDbEntity
  8
0
  6
Continuous
 62
     7
370
    15
100
AcDbLine
 10
478.7946072629
 20
651.0985442544
 30
0.0
 11
485.5527085473999
 21
662.8039279128
 31
0.0
  0
LINE
  5
1D3
330
1F
100
AcDbEntity
  8
0
  6
Continuous
 62
     7
370
    15
100
AcDbLine
 10
368.4905096179
 20
587.4144458319
 30
0.0
 11
478.7946072629
 21
651.0985442544
 31
0.0
  0
LINE
  5
1D4
330
1F
100
AcDbEntity
  8
0
  6
Continuous
 62
     7
370
    15
100
AcDbLine
 10
354.9743070489
 20
587.4144458319
 30
0.0
 11
368.4905096179
 21
587.4144458319
 31
0.0
  0
LINE
  5
1D5
330
1F
100
AcDbEntity
  8
0
  6
Continuous
 62
     7
370
    15
100
AcDbLine
 10
244.6702000907
 20
651.0985442544
 30
0.0
 11
354.9743070489
 21
587.4144458319
 31
0.0
  0
LINE
  5
1D6
330
1F
100
AcDbEntity
  8
0
  6
Continuous
 62
     7
370
    15
100
AcDbLine
 10
237.9120988062
 20
662.8039279128
 30
0.0
 11
244.6702000907
 21
651.0985442544
 31
0.0
  0
LINE
  5
1D7
330
1F
100
AcDbEntity
  8
0
  6
Continuous
 62
     7
370
    15
100
AcDbLine
 10
237.9120988062
 20
790.1721247578
 30
0.0
 11
237.9120988062
 21
662.8039279128
 31
0.0
  0
LINE
  5
1D8
330
1F
100
AcDbEntity
  8
0
  6
Continuous
 62
     7
370
    15
100
AcDbLine
 10
244.6702000907
 20
801.8775009657
 30
0.0
 11
237.9120988062
 21
790.1721247578
 31
0.0
  0
CIRCLE
  5
1D9
330
1F
100
AcDbEntity
  8
0
  6
Continuous
 62
     7
370
    15
100
AcDbCircle
 10
478.8042967205
 20
726.5422004853999
 30
0.0
 40
1.777999999999962
  0
CIRCLE
  5
1DA
330
1F
100
AcDbEntity
  8
0
  6
Continuous
 62
     7
370
    15
100
AcDbCircle
 10
420.2214340083999
 20
827.9023468553999
 30
0.0
 40
1.778000000000056
  0
CIRCLE
  5
1DB
330
1F
100
AcDbEntity
  8
0
  6
Continuous
 62
     7
370
    15
100
AcDbCircle
 10
303.1495409646
 20
827.8481727053
 30
0.0
 40
1.778000000000028
  0
CIRCLE
  5
1DC
330
1F
100
AcDbEntity
  8
0
  6
Continuous
 62
     7
370
    15
100
AcDbCircle
 10
244.660510633
 20
726.4338521852001
 30
0.0
 40
1.777999999999992
  0
CIRCLE
  5
1DD
330
1F
100
AcDbEntity
  8
0
  6
Continuous
 62
     7
370
    15
100
AcDbCircle
 10
303.2433733451
 20
625.0737058152
 30
0.0
 40
1.777999999999958
  0
CIRCLE
  5
1DE
330
1F
100
AcDbEntity
  8
0
  6
Continuous
 62
     7
370
    15
100
AcDbCircle
 10
420.3152663888999
 20
625.1278799652999
 30
0.0
 40
1.777999999999929
  0
ARC
  5
1DF
330
1F
100
AcDbEntity
  8
0
  6
Continuous
 62
     7
370
    15
100
AcDbCircle
 10
355.7324036768
 20
836.4880263352999
 30
0.0
 40
1.0
100
AcDbArc
 50
90.0
 51
270.0
  0
LINE
  5
1E0
330
1F
100
AcDbEntity
  8
0
  6
Continuous
 62
     7
370
    15
100
AcDbLine
 10
355.7324036768
 20
835.4880263352999
 30
0.0
 11
367.7324036768
 21
835.4880263352999
 31
0.0
  0
ARC
  5
1E1
330
1F
100
AcDbEntity
  8
0
  6
Continuous
 62
     7
370
    15
100
AcDbCircle
 10
367.7324036768
 20
836.4880263352999
 30
0.0
 40
1.0
100
AcDbArc
 50
270.0
 51
90.0
  0
LINE
  5
1E2
330
1F
100
AcDbEntity
  8
0
  6
Continuous
 62
     7
370
    15
100
AcDbLine
 10
367.7324036768
 20
837.4880263353
 30
0.0
 11
355.7324036768
 21
837.4880263353
 31
0.0
  0
ARC
  5
1E3
330
1F
100
AcDbEntity
  8
0
  6
Continuous
 62
     7
370
    15
100
AcDbCircle
 10
355.7324036768
 20
832.4880263353
 30
0.0
 40
1.000000000000113
100
AcDbArc
 50
90.0
 51
270.0
  0
LINE
  5
1E4
330
1F
100
AcDbEntity
  8
0
  6
Continuous
 62
     7
370
    15
100
AcDbLine
 10
355.7324036768
 20
831.4880263353
 30
0.0
 11
367.7324036768
 21
831.4880263353
 31
0.0
  0
ARC
  5
1E5
330
1F
100
AcDbEntity
  8
0
  6
Continuous
 62
     7
370
    15
100
AcDbCircle
 10
367.7324036768
 20
832.4880263353
 30
0.0
 40
1.000000000000113
100
AcDbArc
 50
270.0
 51
90.0
  0
LINE
  5
1E6
330
1F
100
AcDbEntity
  8
0
  6
Continuous
 62
     7
370
    15
100
AcDbLine
 10
367.7324036768
 20
833.4880263352999
 30
0.0
 11
355.7324036768
 21
833.4880263352999
 31
0.0
  0
LINE
  5
1E7
330
1F
100
AcDbEntity
  8
0
  6
Continuous
 62
     7
370
    15
100
AcDbLine
 10
355.7324036768
 20
617.4880263352999
 30
0.0
 11
367.7324036768
 21
617.4880263352999
 31
0.0
  0
ARC
  5
1E8
330
1F
100
AcDbEntity
  8
0
  6
Continuous
 62
     7
370
    15
100
AcDbCircle
 10
355.7324036768
 20
616.4880263352999
 30
0.0
 40
1.0
100
AcDbArc
 50
90.0
 51
270.0
  0
LINE
  5
1E9
330
1F
100
AcDbEntity
  8
0
  6
Continuous
 62
     7
370
    15
100
AcDbLine
 10
367.7324036768
 20
615.4880263353
 30
0.0
 11
355.7324036768
 21
615.4880263353
 31
0.0
  0
ARC
  5
1EA
330
1F
100
AcDbEntity
  8
0
  6
Continuous
 62
     7
370
    15
100
AcDbCircle
 10
367.7324036768
 20
616.4880263352999
 30
0.0
 40
1.000000000000113
100
AcDbArc
 50
270.0
 51
90.0
  0
LINE
  5
1EB
330
1F
100
AcDbEntity
  8
0
  6
Continuous
 62
     7
370
    15
100
AcDbLine
 10
354.9742977356
 20
865.5616068387999
 30
0.0
 11
244.6702000907
 21
801.8775009657
 31
0.0
  0
LINE
  5
1EC
330
1F
100
AcDbEntity
  8
0
  6
Continuous
 62
     7
370
    15
100
AcDbLine
 10
368.4905096179
 20
865.5616068387999
 30
0.0
 11
354.9742977356
 21
865.5616068387999
 31
0.0
  0
LINE
  5
1ED
330
1F
100
AcDbEntity
  8
0
  6
Continuous
 62
     7
370
    15
100
AcDbLine
 10
478.7946072629
 20
801.8775084163001
 30
0.0
 11
368.4905096179
 21
865.5616068387999
 31
0.0
  0
LINE
  5
1EE
330
1F
100
AcDbEntity
  8
0
  6
Continuous
 62
     7
370
    15
100
AcDbLine
 10
356.9699036768
 20
867.9330317004
 30
0.0
 11
356.9699036179
 21
865.5616068387999
 31
0.0
  0
LINE
  5
1EF
330
1F
100
AcDbEntity
  8
0
  6
Continuous
 62
     7
370
    15
100
AcDbLine
 10
366.4949036768
 20
867.9330317004
 30
0.0
 11
366.4949037356
 21
865.5616068387999
 31
0.0
  0
LINE
  5
1F0
330
1F
100
AcDbEntity
  8
0
  6
Continuous
 62
     7
370
    15
100
AcDbLine
 10
356.9699036768
 20
868.3074073824998
 30
0.0
 11
356.9699036768
 21
867.9330317004
 31
0.0
  0
LINE
  5
1F1
330
1F
100
AcDbEntity
  8
0
  6
Continuous
 62
     7
370
    15
100
AcDbLine
 10
366.4949036768
 20
868.3074073824998
 30
0.0
 11
366.4949036768
 21
867.9330317004
 31
0.0
  0
LINE
  5
1F2
330
1F
100
AcDbEntity
  8
0
  6
Continuous
 62
     7
370
    15
100
AcDbLine
 10
481.8461215613999
 20
651.6410776673
 30
0.0
 11
479.7924039176
 21
652.8267883802
 31
0.0
  0
LINE
  5
1F3
330
1F
100
AcDbEntity
  8
0
  6
Continuous
 62
     7
370
    15
100
AcDbLine
 10
486.6086215614
 20
659.8899696383
 30
0.0
 11
484.5549044421
 21
661.075683787
 31
0.0
  0
LWPOLYLINE
  5
1F4
330
1F
100
AcDbEntity
  8
0
  6
Continuous
 62
     7
370
    15
100
AcDbPolyline
 90
        7
 70
   128
 43
0.0
 10
482.1703386714999
 20
651.4538922454
 10
482.1690199187
 20
651.4546522045999
 10
482.1492833306999
 20
651.4660441423
 10
482.1062040737
 20
651.4909216308999
 10
482.0404974034
 20
651.5288525368
 10
481.9533107093
 20
651.5791886593
 10
481.8461192062
 20
651.6410806323
  0
LWPOLYLINE
  5
1F5
330
1F
100
AcDbEntity
  8
0
  6
Continuous
 62
     7
370
    15
100
AcDbPolyline
 90
        7
 70
   128
 43
0.0
 10
486.9328391959999
 20
659.7027802014999
 10
486.9315278938
 20
659.7035401607
 10
486.9117838551999
 20
659.7149395490999
 10
486.8687045981999
 20
659.7398095871
 10
486.8030053784999
 20
659.7777479434999
 10
486.7158112338
 20
659.828084066
 10
486.6086197307
 20
659.8899685883999
  0
CIRCLE
  5
1F6
330
1F
100
AcDbEntity
  8
0
  6
Continuous
 62
     7
370
    15
100
AcDbCircle
 10
230.2924233873
 20
726.4880263352999
 30
0.0
 40
3.213000000000021
  0
CIRCLE
  5
1F7
330
1F
100
AcDbEntity
  8
0
  6
Continuous
 62
     7
370
    15
100
AcDbCircle
 10
230.2924233873
 20
726.4880263352999
 30
0.0
 40
4.317999999999813
  0
CIRCLE
  5
1F8
330
1F
100
AcDbEntity
  8
0
  6
Continuous
 62
     7
370
    15
100
AcDbCircle
 10
230.2924233873
 20
726.4880263352999
 30
0.0
 40
2.412999999999982
  0
LINE
  5
1F9
330
1F
100
AcDbEntity
  8
0
  6
Continuous
 62
     7
370
    15
100
AcDbLine
 10
441.3353164212
 20
612.4020844154999
 30
0.0
 11
420.8053015274
 21
600.5490747900999
 31
0.0
  0
ARC
  5
1FA
330
1F
100
AcDbEntity
  8
0
  6
Continuous
 62
     7
370
    15
100
AcDbCircle
 10
361.7324036768
 20
726.4880263352999
 30
0.0
 40
139.105092562336
100
AcDbArc
 50
275.9408830569
 51
295.1293851993
  0
ARC
  5
1FB
330
1F
100
AcDbEntity
  8
0
  6
Continuous
 62
     7
370
    15
100
AcDbCircle
 10
427.6064489823999
 20
612.9555824758
 30
0.0
 40
57.15000000000001
100
AcDbArc
 50
202.5211082267
 51
205.7466596471
  0
ARC
  5
1FC
330
1F
100
AcDbEntity
  8
0
  6
Continuous
 62
     7
370
    15
100
AcDbCircle
 10
427.153169445
 20
612.6938814129
 30
0.0
 40
57.15000000000006
100
AcDbArc
 50
34.2636519287
 51
37.4788917733
  0
ARC
  5
1FD
330
1F
100
AcDbEntity
  8
0
  6
Continuous
 62
     7
370
    15
100
AcDbCircle
 10
361.7324036768
 20
726.4880263352999
 30
0.0
 40
139.1122778949659
100
AcDbArc
 50
304.9052213738
 51
324.076102132
  0
LINE
  5
1FE
330
1F
100
AcDbEntity
  8
0
  6
Continuous
 62
     7
370
    15
100
AcDbLine
 10
420.7322712217999
 20
852.4691419471
 30
0.0
 11
441.2622861155999
 21
840.6161323217
 31
0.0
  0
ARC
  5
1FF
330
1F
100
AcDbEntity
  8
0
  6
Continuous
 62
     7
370
    15
100
AcDbCircle
 10
361.7324036768
 20
726.4880263352999
 30
0.0
 40
139.105092562336
100
AcDbArc
 50
35.9408830569
 51
55.1293851993
  0
ARC
  5
200
330
1F
100
AcDbEntity
  8
0
  6
Continuous
 62
     7
370
    15
100
AcDbCircle
 10
427.11736156
 20
840.3028449497998
 30
0.0
 40
57.15000000000003
100
AcDbArc
 50
322.5211082267
 51
325.7466596471001
  0
ARC
  5
201
330
1F
100
AcDbEntity
  8
0
  6
Continuous
 62
     7
370
    15
100
AcDbCircle
 10
361.7324036768
 20
726.4880263352999
 30
0.0
 40
139.1122778949661
100
AcDbArc
 50
64.90522137380001
 51
84.07610213199999
  0
ARC
  5
202
330
1F
100
AcDbEntity
  8
0
  6
Continuous
 62
     7
370
    15
100
AcDbCircle
 10
427.5706410974
 20
840.0411438868999
 30
0.0
 40
57.14999999999998
100
AcDbArc
 50
154.2636519287
 51
157.4788917733
  0
ARC
  5
203
330
1F
100
AcDbEntity
  8
0
  6
Continuous
 62
     7
370
    15
100
AcDbCircle
 10
230.4734004879
 20
726.2056515803999
 30
0.0
 40
57.15000000000021
100
AcDbArc
 50
219.9395439055
 51
265.1490173116
  0
LINE
  5
204
330
1F
100
AcDbEntity
  8
0
  6
Continuous
 62
     7
370
    15
100
AcDbLine
 10
186.6552233873
 20
689.51655435
 30
0.0
 11
186.6552233873
 21
762.8947488108
 31
0.0
  0
ARC
  5
205
330
1F
100
AcDbEntity
  8
0
  6
Continuous
 62
     7
370
    15
100
AcDbCircle
 10
230.4734004879
 20
726.2056515803999
 30
0.0
 40
57.14999999999995
100
AcDbArc
 50
94.6051425547
 51
140.0604560945
  0
LINE
  5
206
330
1F
100
AcDbEntity
  8
0
  6
Continuous
 62
     7
370
    15
100
AcDbLine
 10
237.4552233873
 20
738.2988718941
 30
0.0
 11
237.4552233873
 21
714.6771807764999
 31
0.0
  0
ARC
  5
207
330
1F
100
AcDbEntity
  8
0
  6
Continuous
 62
     7
370
    15
100
AcDbCircle
 10
98.85244309790001
 20
726.4880263352999
 30
0.0
 40
139.105092562336
100
AcDbArc
 50
335.7072663815
 51
355.1293851993
  0
ARC
  5
208
330
1F
100
AcDbEntity
  8
0
  6
Continuous
 62
     7
370
    15
100
AcDbCircle
 10
98.85244309790001
 20
726.4880263352999
 30
0.0
 40
139.1050925623359
100
AcDbArc
 50
4.8706148007
 51
24.0468934848
  0
CIRCLE
  5
209
330
1F
100
AcDbEntity
  8
0
  6
Continuous
 62
     7
370
    15
100
AcDbCircle
 10
427.4523938215
 20
612.6576643316999
 30
0.0
 40
3.213000000000008
  0
CIRCLE
  5
20A
330
1F
100
AcDbEntity
  8
0
  6
Continuous
 62
     7
370
    15
100
AcDbCircle
 10
427.4523938215
 20
612.6576643316999
 30
0.0
 40
4.317999999999771
  0
CIRCLE
  5
20B
330
1F
100
AcDbEntity
  8
0
  6
Continuous
 62
     7
370
    15
100
AcDbCircle
 10
427.4523938215
 20
840.3183883389001
 30
0.0
 40
4.317999999999898
  0
CIRCLE
  5
20C
330
1F
100
AcDbEntity
  8
0
  6
Continuous
 62
     7
370
    15
100
AcDbCircle
 10
427.4523938215
 20
840.3183883389001
 30
0.0
 40
3.212999999999911
  0
CIRCLE
  5
20D
330
1F
100
AcDbEntity
  8
0
  6
Continuous
 62
     7
370
    15
100
AcDbCircle
 10
427.4523938215
 20
612.6576643316999
 30
0.0
 40
2.412999999999974
  0
CIRCLE
  5
20E
330
1F
100
AcDbEntity
  8
0
  6
Continuous
 62
     7
370
    15
100
AcDbCircle
 10
427.4523938215
 20
840.3183883389001
 30
0.0
 40
2.412999999999974
  0
LINE
  5
20F
330
1F
100
AcDbEntity
  8
0
  6
PHANTOM
 62
     7
370
     0
100
AcDbLine
 10
236.8561857922
 20
659.8899696383
 30
0.0
 11
241.6186857922
 21
651.6410776673
 31
0.0
  0
LINE
  5
210
330
1F
100
AcDbEntity
  8
0
  6
PHANTOM
 62
     7
370
     0
100
AcDbLine
 10
366.4949036768
 20
867.9330317004
 30
0.0
 11
356.9699036768
 21
867.9330317004
 31
0.0
  0
LINE
  5
211
330
1F
100
AcDbEntity
  8
0
  6
PHANTOM
 62
     7
370
     0
100
AcDbLine
 10
481.8461215613999
 20
651.6410776673
 30
0.0
 11
486.6086215614
 21
659.8899696383
 31
0.0
  0
DIMENSION
  5
212
330
1F
100
AcDbEntity
  8
WAKU
 62
     7
100
AcDbDimension
  2
*D10
 10
262.1497916598
 20
827.7169914781
 30
0.0
 11
191.3795886165
 21
866.1545433244
 31
0.0
 70
   163
  1
<>
 42
1420.0
  3
SLDDIMSTYLE4
100
AcDbDiametricDimension
 15
461.3150156937999
 25
625.2590611926
 35
0.0
 40
0.0
1001
ACAD
1000
DSTYLE
1002
{
1070
    77
1070
     0
1070
   143
1040
0.0393700787
1070
    41
1040
10.0
1070
    44
1040
5.0
1070
    42
1040
5.0
1070
   147
1040
7.62
1070
    73
1070
     1
1070
    74
1070
     1
1070
   140
1040
17.6388888889
1070
   284
1070
    12
1070
    78
1070
    12
1002
}
  0
DIMENSION
  5
22B
330
1F
100
AcDbEntity
  8
WAKU
 62
     7
100
AcDbDimension
  2
*D11
 10
354.9742978169001
 20
865.5616063511999
 30
0.0
 11
361.7324045569
 21
805.3141518446
 31
0.0
 70
   162
 42
2.0943950656
  3
SLDDIMSTYLE5
100
AcDb2LineAngularDimension
 13
368.4905095094
 23
865.5616063511999
 33
0.0
 14
478.7946040507
 24
801.8775076749999
 34
0.0
 15
244.6701986262
 25
801.8774995748
 35
0.0
 16
329.6577804591
 26
813.9085206778998
 36
0.0
1001
ACAD
1000
DSTYLE
1002
{
1070
    77
1070
     3
1070
   143
1040
0.0393700787
1070
    41
1040
10.0
1070
    44
1040
5.0
1070
    42
1040
5.0
1070
   147
1040
7.62
1070
    73
1070
     0
1070
    74
1070
     0
1070
   140
1040
17.6388888889
1070
   284
1070
    12
1070
    78
1070
    12
1002
}
  0
DIMENSION
  5
23E
330
1F
100
AcDbEntity
  8
WAKU
 62
     7
100
AcDbDimension
  2
*D12
 10
485.5527157872
 20
502.8155418297
 30
0.0
 11
361.7324072299
 21
502.8155372701
 31
0.0
 70
   160
 42
247.6406124242
  3
SLDDIMSTYLE1
100
AcDbAlignedDimension
 13
237.9120974715
 23
662.8039276598999
 33
0.0
 14
485.5527098957
 24
662.8039276834999
 34
0.0
 50
0.0000021099
100
AcDbRotatedDimension
1001
ACAD
1000
DSTYLE
1002
{
1070
    77
1070
     3
1070
   143
1040
0.0393700787
1070
    41
1040
10.0
1070
    44
1040
5.0
1070
    42
1040
5.0
1070
   147
1040
7.62
1070
    73
1070
     0
1070
    74
1070
     0
1070
   140
1040
17.6388888889
1070
   284
1070
    12
1070
    78
1070
    12
1002
}
  0
INSERT
  5
260
330
1F
100
AcDbEntity
  8
0
  6
Continuous
 62
     7
370
     0
100
AcDbBlockReference
  2
SW_CENTERMARKSYMBOL_1
 10
98.85244309790001
 20
726.4880263352999
 30
0.0
  0
INSERT
  5
26C
330
1F
100
AcDbEntity
  8
WAKU
 62
     7
100
AcDbBlockReference
  2
SW_CENTERMARKSYMBOL_2
 10
361.7324036768
 20
726.4880263352999
 30
0.0
  0
INSERT
  5
278
330
1F
100
AcDbEntity
  8
WAKU
 62
     7
100
AcDbBlockReference
  2
SW_CENTERMARKSYMBOL_3
 10
427.4523938215
 20
612.6576643316999
 30
0.0
  0
INSERT
  5
284
330
1F
100
AcDbEntity
  8
WAKU
 62
     7
100
AcDbBlockReference
  2
SW_CENTERMARKSYMBOL_4
 10
230.2924233873
 20
726.4880263352999
 30
0.0
  0
INSERT
  5
290
330
1F
100
AcDbEntity
  8
WAKU
 62
     7
100
AcDbBlockReference
  2
SW_CENTERMARKSYMBOL_5
 10
427.4523938215
 20
840.3183883389001
 30
0.0
  0
ENDSEC
  0
SECTION
  2
OBJECTS
  0
DICTIONARY
  5
C
330
0
100
AcDbDictionary
281
     1
  3
ACAD_COLOR
350
294
  3
ACAD_GROUP
350
D
  3
ACAD_LAYOUT
350
1A
  3
ACAD_MATERIAL
350
293
  3
ACAD_MLINESTYLE
350
17
  3
ACAD_PLOTSETTINGS
350
19
  3
ACAD_PLOTSTYLENAME
350
E
  3
ACDBHEADERROUNDTRIPXREC
350
29D
  3
AcDbVariableDictionary
350
299
  0
DICTIONARY
  5
294
102
{ACAD_REACTORS
330
C
102
}
330
C
100
AcDbDictionary
281
     1
  0
DICTIONARY
  5
D
102
{ACAD_REACTORS
330
C
102
}
330
C
100
AcDbDictionary
281
     1
  0
DICTIONARY
  5
1A
102
{ACAD_REACTORS
330
C
102
}
330
C
100
AcDbDictionary
281
     1
  3
Layout1
350
1E
  3
Layout2
350
26
  3
Model
350
22
  0
DICTIONARY
  5
293
102
{ACAD_REACTORS
330
C
102
}
330
C
100
AcDbDictionary
281
     1
  0
DICTIONARY
  5
17
102
{ACAD_REACTORS
330
C
102
}
330
C
100
AcDbDictionary
281
     1
  3
Standard
350
18
  0
DICTIONARY
  5
19
102
{ACAD_REACTORS
330
C
102
}
330
C
100
AcDbDictionary
281
     1
  0
ACDBDICTIONARYWDFLT
  5
E
102
{ACAD_REACTORS
330
C
102
}
330
C
100
AcDbDictionary
281
     1
  3
Normal
350
F
100
AcDbDictionaryWithDefault
340
F
  0
DICTIONARY
  5
29D
102
{ACAD_REACTORS
330
C
102
}
330
C
100
AcDbDictionary
281
     1
  0
DICTIONARY
  5
299
102
{ACAD_REACTORS
330
C
102
}
330
C
100
AcDbDictionary
281
     1
  3
DIMASSOC
350
29A
  3
PROJECTNAME
350
29B
  0
LAYOUT
  5
1E
102
{ACAD_XDICTIONARY
360
29E
102
}
102
{ACAD_REACTORS
330
1A
102
}
330
1A
100
AcDbPlotSettings
  1

  2

  4

  6

 40
0.0
 41
0.0
 42
0.0
 43
0.0
 44
0.0
 45
0.0
 46
0.0
 47
0.0
 48
0.0
 49
0.0
140
0.0
141
0.0
142
1.0
143
1.0
 70
   688
 72
     0
 73
     0
 74
     5
  7

 75
    16
147
1.0
148
0.0
149
0.0
100
AcDbLayout
  1
Layout1
 70
     1
 71
     1
 10
0.0
 20
0.0
 11
420.0
 21
297.0
 12
0.0
 22
0.0
 32
0.0
 14
1.000000000000000E+20
 24
1.000000000000000E+20
 34
1.000000000000000E+20
 15
-1.000000000000000E+20
 25
-1.000000000000000E+20
 35
-1.000000000000000E+20
146
0.0
 13
0.0
 23
0.0
 33
0.0
 16
1.0
 26
0.0
 36
0.0
 17
0.0
 27
1.0
 37
0.0
 76
     0
330
1B
  0
LAYOUT
  5
26
102
{ACAD_XDICTIONARY
360
2A2
102
}
102
{ACAD_REACTORS
330
1A
102
}
330
1A
100
AcDbPlotSettings
  1

  2

  4

  6

 40
0.0
 41
0.0
 42
0.0
 43
0.0
 44
0.0
 45
0.0
 46
0.0
 47
0.0
 48
0.0
 49
0.0
140
0.0
141
0.0
142
1.0
143
1.0
 70
   688
 72
     0
 73
     0
 74
     5
  7

 75
    16
147
1.0
148
0.0
149
0.0
100
AcDbLayout
  1
Layout2
 70
     1
 71
     2
 10
0.0
 20
0.0
 11
0.0
 21
0.0
 12
0.0
 22
0.0
 32
0.0
 14
0.0
 24
0.0
 34
0.0
 15
0.0
 25
0.0
 35
0.0
146
0.0
 13
0.0
 23
0.0
 33
0.0
 16
1.0
 26
0.0
 36
0.0
 17
0.0
 27
1.0
 37
0.0
 76
     0
330
23
  0
LAYOUT
  5
22
102
{ACAD_XDICTIONARY
360
2A0
102
}
102
{ACAD_REACTORS
330
1A
102
}
330
1A
100
AcDbPlotSettings
  1

  2

  4

  6

 40
0.0
 41
0.0
 42
0.0
 43
0.0
 44
0.0
 45
0.0
 46
0.0
 47
0.0
 48
0.0
 49
0.0
140
0.0
141
0.0
142
1.0
143
1.0
 70
  1712
 72
     0
 73
     0
 74
     0
  7

 75
     0
147
1.0
148
0.0
149
0.0
100
AcDbLayout
  1
Model
 70
     1
 71
     0
 10
0.0
 20
0.0
 11
0.0
 21
0.0
 12
0.0
 22
0.0
 32
0.0
 14
0.0
 24
0.0
 34
0.0
 15
1050.0
 25
1485.0
 35
0.0
146
0.0
 13
0.0
 23
0.0
 33
0.0
 16
1.0
 26
0.0
 36
0.0
 17
0.0
 27
1.0
 37
0.0
 76
     0
330
1F
  0
MLINESTYLE
  5
18
102
{ACAD_REACTORS
330
17
102
}
330
17
100
AcDbMlineStyle
  2
STANDARD
 70
     0
  3

 62
   256
 51
90.0
 52
90.0
 71
     2
 49
0.5
 62
   256
  6
BYLAYER
 49
-0.5
 62
   256
  6
BYLAYER
  0
ACDBPLACEHOLDER
  5
F
102
{ACAD_REACTORS
330
E
102
}
330
E
  0
DICTIONARYVAR
  5
29A
102
{ACAD_REACTORS
330
299
102
}
330
299
100
DictionaryVariables
280
     0
  1
1
  0
DICTIONARYVAR
  5
29B
102
{ACAD_REACTORS
330
299
102
}
330
299
100
DictionaryVariables
280
     0
  1

  0
DICTIONARY
  5
29E
330
1E
100
AcDbDictionary
280
     1
281
     1
  3
ACAD_XREC_ROUNDTRIP
360
29F
  0
DICTIONARY
  5
2A2
330
26
100
AcDbDictionary
280
     1
281
     1
  3
ACAD_XREC_ROUNDTRIP
360
2A3
  0
DICTIONARY
  5
2A0
330
22
100
AcDbDictionary
280
     1
281
     1
  3
ACAD_XREC_ROUNDTRIP
360
2A1
  0
XRECORD
  5
29F
102
{ACAD_REACTORS
330
29E
102
}
330
29E
100
AcDbXrecord
280
     1
102
SHADEPLOT
 70
     0
102
SHADEPLOTRESLEVEL
 70
     2
102
SHADEPLOTCUSTOMDPI
 70
   300
  0
XRECORD
  5
2A3
102
{ACAD_REACTORS
330
2A2
102
}
330
2A2
100
AcDbXrecord
280
     1
102
SHADEPLOT
 70
     0
102
SHADEPLOTRESLEVEL
 70
     2
102
SHADEPLOTCUSTOMDPI
 70
   300
  0
XRECORD
  5
2A1
102
{ACAD_REACTORS
330
2A0
102
}
330
2A0
100
AcDbXrecord
280
     1
102
SHADEPLOT
 70
     0
102
SHADEPLOTRESLEVEL
 70
     2
102
SHADEPLOTCUSTOMDPI
 70
   300
  0
ENDSEC
  0
EOF
