  0
SECTION
  2
HEADER
  9
$ACADVER
  1
AC1015
  9
$ACADMAINTVER
 70
    20
  9
$DWGCODEPAGE
  3
ANSI_932
  9
$INSBASE
 10
0.0
 20
0.0
 30
0.0
  9
$EXTMIN
 10
82.8970623742
 20
35.3531589537
 30
-91.6
  9
$EXTMAX
 10
802.8970623741999
 20
1147.3531589537
 30
85.63300858899999
  9
$LIMMIN
 10
0.0
 20
0.0
  9
$LIMMAX
 10
0.0
 20
0.0
  9
$ORTHOMODE
 70
     0
  9
$REGENMODE
 70
     1
  9
$FILLMODE
 70
     1
  9
$QTEXTMODE
 70
     0
  9
$MIRRTEXT
 70
     1
  9
$LTSCALE
 40
1.0
  9
$ATTMODE
 70
     1
  9
$TEXTSIZE
 40
2.5
  9
$TRACEWID
 40
1.0
  9
$TEXTSTYLE
  7
STANDARD
  9
$CLAYER
  8
0
  9
$CELTYPE
  6
ByLayer
  9
$CECOLOR
 62
   256
  9
$CELTSCALE
 40
1.0
  9
$DISPSILH
 70
     0
  9
$DIMSCALE
 40
1.0
  9
$DIMASZ
 40
10.0
  9
$DIMEXO
 40
4.0
  9
$DIMDLI
 40
3.75
  9
$DIMRND
 40
0.0
  9
$DIMDLE
 40
0.0
  9
$DIMEXE
 40
4.0
  9
$DIMTP
 40
0.0
  9
$DIMTM
 40
0.0
  9
$DIMTXT
 40
12.7
  9
$DIMCEN
 40
2.5
  9
$DIMTSZ
 40
0.0
  9
$DIMTOL
 70
     0
  9
$DIMLIM
 70
     0
  9
$DIMTIH
 70
     1
  9
$DIMTOH
 70
     1
  9
$DIMSE1
 70
     0
  9
$DIMSE2
 70
     0
  9
$DIMTAD
 70
     1
  9
$DIMZIN
 70
     0
  9
$DIMBLK
  1

  9
$DIMASO
 70
     1
  9
$DIMSHO
 70
     1
  9
$DIMPOST
  1

  9
$DIMAPOST
  1

  9
$DIMALT
 70
     0
  9
$DIMALTD
 70
     3
  9
$DIMALTF
 40
0.0393700787
  9
$DIMLFAC
 40
1.0
  9
$DIMTOFL
 70
     1
  9
$DIMTVP
 40
0.0
  9
$DIMTIX
 70
     0
  9
$DIMSOXD
 70
     0
  9
$DIMSAH
 70
     0
  9
$DIMBLK1
  1

  9
$DIMBLK2
  1

  9
$DIMSTYLE
  2
ISO-25
  9
$DIMCLRD
 70
     0
  9
$DIMCLRE
 70
     0
  9
$DIMCLRT
 70
     0
  9
$DIMTFAC
 40
1.0
  9
$DIMGAP
 40
6.096
  9
$DIMJUST
 70
     0
  9
$DIMSD1
 70
     0
  9
$DIMSD2
 70
     0
  9
$DIMTOLJ
 70
     0
  9
$DIMTZIN
 70
     0
  9
$DIMALTZ
 70
     0
  9
$DIMALTTZ
 70
     0
  9
$DIMUPT
 70
     0
  9
$DIMDEC
 70
     2
  9
$DIMTDEC
 70
     2
  9
$DIMALTU
 70
     2
  9
$DIMALTTD
 70
     3
  9
$DIMTXSTY
  7
STANDARD
  9
$DIMAUNIT
 70
     0
  9
$DIMADEC
 70
     0
  9
$DIMALTRND
 40
0.0
  9
$DIMAZIN
 70
     0
  9
$DIMDSEP
 70
    44
  9
$DIMATFIT
 70
     3
  9
$DIMFRAC
 70
     0
  9
$DIMLDRBLK
  1

  9
$DIMLUNIT
 70
     2
  9
$DIMLWD
 70
    -2
  9
$DIMLWE
 70
    -2
  9
$DIMTMOVE
 70
     0
  9
$LUNITS
 70
     2
  9
$LUPREC
 70
     2
  9
$SKETCHINC
 40
1.0
  9
$FILLETRAD
 40
10.0
  9
$AUNITS
 70
     0
  9
$AUPREC
 70
     0
  9
$MENU
  1
.
  9
$ELEVATION
 40
0.0
  9
$PELEVATION
 40
0.0
  9
$THICKNESS
 40
0.0
  9
$LIMCHECK
 70
     0
  9
$CHAMFERA
 40
10.0
  9
$CHAMFERB
 40
10.0
  9
$CHAMFERC
 40
20.0
  9
$CHAMFERD
 40
0.0
  9
$SKPOLY
 70
     0
  9
$TDCREATE
 40
2454163.432239757
  9
$TDUCREATE
 40
2454163.057239757
  9
$TDUPDATE
 40
2454855.367153310
  9
$TDUUPDATE
 40
2454854.992153310
  9
$TDINDWG
 40
0.0003635185
  9
$TDUSRTIMER
 40
0.0003633333
  9
$USRTIMER
 70
     1
  9
$ANGBASE
 50
0.0
  9
$ANGDIR
 70
     0
  9
$PDMODE
 70
     0
  9
$PDSIZE
 40
-1.0
  9
$PLINEWID
 40
0.0
  9
$SPLFRAME
 70
     0
  9
$SPLINETYPE
 70
     6
  9
$SPLINESEGS
 70
     8
  9
$HANDSEED
  5
33B
  9
$SURFTAB1
 70
     6
  9
$SURFTAB2
 70
     6
  9
$SURFTYPE
 70
     6
  9
$SURFU
 70
     6
  9
$SURFV
 70
     6
  9
$UCSBASE
  2

  9
$UCSNAME
  2

  9
$UCSORG
 10
0.0
 20
0.0
 30
0.0
  9
$UCSXDIR
 10
1.0
 20
0.0
 30
0.0
  9
$UCSYDIR
 10
0.0
 20
1.0
 30
0.0
  9
$UCSORTHOREF
  2

  9
$UCSORTHOVIEW
 70
     0
  9
$UCSORGTOP
 10
0.0
 20
0.0
 30
0.0
  9
$UCSORGBOTTOM
 10
0.0
 20
0.0
 30
0.0
  9
$UCSORGLEFT
 10
0.0
 20
0.0
 30
0.0
  9
$UCSORGRIGHT
 10
0.0
 20
0.0
 30
0.0
  9
$UCSORGFRONT
 10
0.0
 20
0.0
 30
0.0
  9
$UCSORGBACK
 10
0.0
 20
0.0
 30
0.0
  9
$PUCSBASE
  2

  9
$PUCSNAME
  2

  9
$PUCSORG
 10
0.0
 20
0.0
 30
0.0
  9
$PUCSXDIR
 10
1.0
 20
0.0
 30
0.0
  9
$PUCSYDIR
 10
0.0
 20
1.0
 30
0.0
  9
$PUCSORTHOREF
  2

  9
$PUCSORTHOVIEW
 70
     0
  9
$PUCSORGTOP
 10
0.0
 20
0.0
 30
0.0
  9
$PUCSORGBOTTOM
 10
0.0
 20
0.0
 30
0.0
  9
$PUCSORGLEFT
 10
0.0
 20
0.0
 30
0.0
  9
$PUCSORGRIGHT
 10
0.0
 20
0.0
 30
0.0
  9
$PUCSORGFRONT
 10
0.0
 20
0.0
 30
0.0
  9
$PUCSORGBACK
 10
0.0
 20
0.0
 30
0.0
  9
$USERI1
 70
     0
  9
$USERI2
 70
     0
  9
$USERI3
 70
     0
  9
$USERI4
 70
     0
  9
$USERI5
 70
     0
  9
$USERR1
 40
0.0
  9
$USERR2
 40
0.0
  9
$USERR3
 40
0.0
  9
$USERR4
 40
0.0
  9
$USERR5
 40
0.0
  9
$WORLDVIEW
 70
     1
  9
$SHADEDGE
 70
     3
  9
$SHADEDIF
 70
    70
  9
$TILEMODE
 70
     1
  9
$MAXACTVP
 70
    64
  9
$PINSBASE
 10
0.0
 20
0.0
 30
0.0
  9
$PLIMCHECK
 70
     0
  9
$PEXTMIN
 10
1.000000000000000E+20
 20
1.000000000000000E+20
 30
1.000000000000000E+20
  9
$PEXTMAX
 10
-1.000000000000000E+20
 20
-1.000000000000000E+20
 30
-1.000000000000000E+20
  9
$PLIMMIN
 10
0.0
 20
0.0
  9
$PLIMMAX
 10
420.0
 20
297.0
  9
$UNITMODE
 70
     0
  9
$VISRETAIN
 70
     1
  9
$PLINEGEN
 70
     0
  9
$PSLTSCALE
 70
     1
  9
$TREEDEPTH
 70
  3020
  9
$CMLSTYLE
  2
Standard
  9
$CMLJUST
 70
     0
  9
$CMLSCALE
 40
20.0
  9
$PROXYGRAPHICS
 70
     1
  9
$MEASUREMENT
 70
     1
  9
$CELWEIGHT
370
    -1
  9
$ENDCAPS
280
     0
  9
$JOINSTYLE
280
     0
  9
$LWDISPLAY
290
     1
  9
$INSUNITS
 70
     4
  9
$HYPERLINKBASE
  1

  9
$STYLESHEET
  1

  9
$XEDIT
290
     1
  9
$CEPSNTYPE
380
     0
  9
$PSTYLEMODE
290
     1
  9
$FINGERPRINTGUID
  2
{50B428BB-141B-412D-9FDD-247425E293CF}
  9
$VERSIONGUID
  2
{3061F58D-E708-4277-8C56-115EE26602FF}
  9
$EXTNAMES
290
     1
  9
$PSVPSCALE
 40
0.0
  9
$OLESTARTUP
290
     0
  0
ENDSEC
  0
SECTION
  2
CLASSES
  0
CLASS
  1
ACDBDICTIONARYWDFLT
  2
AcDbDictionaryWithDefault
  3
ObjectDBX Classes
 90
        0
280
     0
281
     0
  0
CLASS
  1
ACDBPLACEHOLDER
  2
AcDbPlaceHolder
  3
ObjectDBX Classes
 90
        0
280
     0
281
     0
  0
CLASS
  1
LAYOUT
  2
AcDbLayout
  3
ObjectDBX Classes
 90
        0
280
     0
281
     0
  0
CLASS
  1
DICTIONARYVAR
  2
AcDbDictionaryVar
  3
ObjectDBX Classes
 90
        0
280
     0
281
     0
  0
ENDSEC
  0
SECTION
  2
TABLES
  0
TABLE
  2
VPORT
  5
8
330
0
100
AcDbSymbolTable
 70
     2
  0
VPORT
  5
333
330
8
100
AcDbSymbolTableRecord
100
AcDbViewportTableRecord
  2
*Active
 70
     0
 10
0.0
 20
0.0
 11
1.0
 21
1.0
 12
1099.592912680831
 22
594.0
 13
0.0
 23
0.0
 14
10.0
 24
10.0
 15
10.0
 25
10.0
 16
0.0
 26
0.0
 36
1.0
 17
0.0
 27
0.0
 37
0.0
 40
1188.0
 41
1.637339055793991
 42
50.0
 43
0.0
 44
0.0
 50
0.0
 51
0.0
 71
     0
 72
  2000
 73
     1
 74
     3
 75
     0
 76
     0
 77
     0
 78
     0
281
     0
 65
     1
110
0.0
120
0.0
130
0.0
111
1.0
121
0.0
131
0.0
112
0.0
122
1.0
132
0.0
 79
     0
146
0.0
  0
ENDTAB
  0
TABLE
  2
LTYPE
  5
5
330
0
100
AcDbSymbolTable
 70
     6
  0
LTYPE
  5
14
330
5
100
AcDbSymbolTableRecord
100
AcDbLinetypeTableRecord
  2
ByBlock
 70
     0
  3

 72
    65
 73
     0
 40
0.0
  0
LTYPE
  5
15
330
5
100
AcDbSymbolTableRecord
100
AcDbLinetypeTableRecord
  2
ByLayer
 70
     0
  3

 72
    65
 73
     0
 40
0.0
  0
LTYPE
  5
16
330
5
100
AcDbSymbolTableRecord
100
AcDbLinetypeTableRecord
  2
Continuous
 70
     0
  3
Solid line
 72
    65
 73
     0
 40
0.0
  0
LTYPE
  5
2A
330
5
100
AcDbSymbolTableRecord
100
AcDbLinetypeTableRecord
  2
HIDDEN
 70
     0
  3
Hidden __ __ __ __ __ __ __ __ __ __ __ __ __ __
 72
    65
 73
     2
 40
1.905
 49
1.27
 74
     0
 49
-0.635
 74
     0
  0
LTYPE
  5
2B
330
5
100
AcDbSymbolTableRecord
100
AcDbLinetypeTableRecord
  2
PHANTOM
 70
     0
  3
Phantom ______  __  __  ______  __  __  ______
 72
    65
 73
     6
 40
12.7
 49
6.349999999999999
 74
     0
 49
-1.27
 74
     0
 49
1.27
 74
     0
 49
-1.27
 74
     0
 49
1.27
 74
     0
 49
-1.27
 74
     0
  0
LTYPE
  5
2C
330
5
100
AcDbSymbolTableRecord
100
AcDbLinetypeTableRecord
  2
CENTER
 70
     0
  3
Center ____ _ ____ _ ____ _ ____ _ ____ _ ____
 72
    65
 73
     4
 40
10.16
 49
6.349999999999999
 74
     0
 49
-1.27
 74
     0
 49
1.27
 74
     0
 49
-1.27
 74
     0
  0
LTYPE
  5
2D
330
5
100
AcDbSymbolTableRecord
100
AcDbLinetypeTableRecord
  2
CENTERX2
 70
     0
  3
Center (2x) ________  __  ________  __  _____
 72
    65
 73
     4
 40
20.32
 49
12.7
 74
     0
 49
-2.54
 74
     0
 49
2.54
 74
     0
 49
-2.54
 74
     0
  0
LTYPE
  5
2E
330
5
100
AcDbSymbolTableRecord
100
AcDbLinetypeTableRecord
  2
DOT2
 70
     0
  3
Dot (.5x) ........................................
 72
    65
 73
     2
 40
0.635
 49
0.0
 74
     0
 49
-0.635
 74
     0
  0
ENDTAB
  0
TABLE
  2
LAYER
  5
2
330
0
100
AcDbSymbolTable
 70
     4
  0
LAYER
  5
10
330
2
100
AcDbSymbolTableRecord
100
AcDbLayerTableRecord
  2
0
 70
     0
 62
     7
  6
Continuous
370
    -3
390
F
  0
LAYER
  5
2F
330
2
100
AcDbSymbolTableRecord
100
AcDbLayerTableRecord
  2
SLD-0
 70
     0
 62
     7
  6
Continuous
370
     0
390
F
  0
LAYER
  5
30
330
2
100
AcDbSymbolTableRecord
100
AcDbLayerTableRecord
  2
WAKU
 70
     0
 62
     7
  6
Continuous
370
     0
390
F
  0
LAYER
  5
7A
330
2
100
AcDbSymbolTableRecord
100
AcDbLayerTableRecord
  2
Defpoints
 70
     0
 62
     7
  6
Continuous
290
     0
370
    -3
390
F
  0
ENDTAB
  0
TABLE
  2
STYLE
  5
3
330
0
100
AcDbSymbolTable
 70
     4
  0
STYLE
  5
11
330
3
100
AcDbSymbolTableRecord
100
AcDbTextStyleTableRecord
  2
STANDARD
 70
     0
 40
0.0
 41
1.0
 50
0.0
 71
     0
 42
2.5
  3
MS UI Gothic
  4

  0
STYLE
  5
44
330
3
100
AcDbSymbolTableRecord
100
AcDbTextStyleTableRecord
  2
SLDTEXTSTYLE0
 70
     0
 40
0.0
 41
1.0
 50
0.0
 71
     0
 42
0.2
  3
MS UI Gothic
  4

  0
STYLE
  5
46
330
3
100
AcDbSymbolTableRecord
100
AcDbTextStyleTableRecord
  2
SLDTEXTSTYLE1
 70
     0
 40
0.0
 41
1.0
 50
0.0
 71
     0
 42
0.2
  3
ＭＳ Ｐゴシック
  4

  0
STYLE
  5
324
330
3
100
AcDbSymbolTableRecord
100
AcDbTextStyleTableRecord
  2
SLDTEXTSTYLE2
 70
     0
 40
0.0
 41
1.0
 50
0.0
 71
     0
 42
0.2
  3
ＭＳ ゴシック
  4

  0
ENDTAB
  0
TABLE
  2
VIEW
  5
6
330
0
100
AcDbSymbolTable
 70
     0
  0
ENDTAB
  0
TABLE
  2
UCS
  5
7
330
0
100
AcDbSymbolTable
 70
     0
  0
ENDTAB
  0
TABLE
  2
APPID
  5
9
330
0
100
AcDbSymbolTable
 70
     1
  0
APPID
  5
12
330
9
100
AcDbSymbolTableRecord
100
AcDbRegAppTableRecord
  2
ACAD
 70
     0
  0
ENDTAB
  0
TABLE
  2
DIMSTYLE
  5
A
330
0
100
AcDbSymbolTable
 70
     6
100
AcDbDimStyleTable
 71
     0
  0
DIMSTYLE
105
27
330
A
100
AcDbSymbolTableRecord
100
AcDbDimStyleTableRecord
  2
ISO-25
 70
     0
 41
2.5
 42
0.625
 43
3.75
 44
1.25
 73
     0
 74
     0
 77
     1
 78
     8
140
2.5
141
2.5
143
0.0393700787
147
0.625
171
     3
172
     1
271
     2
272
     2
274
     3
278
    44
283
     0
284
     8
340
11
  0
DIMSTYLE
105
88
102
{ACAD_REACTORS
330
79
330
9C
330
B7
330
102
330
172
330
18D
330
1A8
330
1C3
330
1E1
330
1FC
330
260
330
27E
330
299
330
2B6
102
}
330
A
100
AcDbSymbolTableRecord
100
AcDbDimStyleTableRecord
  2
SLDDIMSTYLE0
 70
     0
 41
10.0
 44
0.0
 73
     0
 74
     0
 77
     3
 78
    12
140
12.7
143
0.0393700787
147
3.174999999999999
170
     1
171
     3
173
     1
271
     2
272
     2
274
     3
284
    12
340
44
341
89
343
89
344
89
  0
DIMSTYLE
105
E0
102
{ACAD_REACTORS
330
D1
102
}
330
A
100
AcDbSymbolTableRecord
100
AcDbDimStyleTableRecord
  2
SLDDIMSTYLE1
 70
     0
 41
10.0
 44
0.0
 73
     0
 74
     0
 77
     3
 78
    12
140
12.7
143
0.0393700787
144
4.0
147
3.174999999999999
170
     1
171
     3
173
     1
179
     2
272
     2
274
     3
284
    12
340
44
341
89
343
89
344
89
  0
DIMSTYLE
105
F4
102
{ACAD_REACTORS
330
E6
330
122
102
}
330
A
100
AcDbSymbolTableRecord
100
AcDbDimStyleTableRecord
  2
SLDDIMSTYLE2
 70
     0
 41
10.0
 44
0.0
 73
     0
 74
     0
 77
     3
 78
    12
140
12.7
143
0.0393700787
147
3.174999999999999
170
     1
171
     3
173
     1
271
     0
272
     0
274
     3
284
    12
340
44
341
89
343
89
344
89
  0
DIMSTYLE
105
220
102
{ACAD_REACTORS
330
213
102
}
330
A
100
AcDbSymbolTableRecord
100
AcDbDimStyleTableRecord
  2
SLDDIMSTYLE3
 70
     0
  3
<>
  4
<>
 41
10.0
 44
0.0
 78
    12
140
12.7
143
0.0393700787
144
4.0
147
3.174999999999999
170
     1
171
     3
172
     1
173
     1
271
     0
272
     0
274
     3
284
    12
340
44
341
89
343
89
344
89
  0
DIMSTYLE
105
2DE
102
{ACAD_REACTORS
330
2D1
102
}
330
A
100
AcDbSymbolTableRecord
100
AcDbDimStyleTableRecord
  2
SLDDIMSTYLE4
 70
     0
 41
10.0
 44
0.0
 78
    12
140
12.7
143
0.0393700787
144
4.0
147
3.174999999999999
170
     1
171
     3
172
     1
173
     1
271
     2
272
     2
274
     3
284
    12
340
44
341
89
343
89
344
89
  0
ENDTAB
  0
TABLE
  2
BLOCK_RECORD
  5
1
330
0
100
AcDbSymbolTable
 70
    30
  0
BLOCK_RECORD
  5
1F
330
1
100
AcDbSymbolTableRecord
100
AcDbBlockTableRecord
  2
*Model_Space
340
22
  0
BLOCK_RECORD
  5
1B
330
1
100
AcDbSymbolTableRecord
100
AcDbBlockTableRecord
  2
*Paper_Space
340
1E
  0
BLOCK_RECORD
  5
23
330
1
100
AcDbSymbolTableRecord
100
AcDbBlockTableRecord
  2
*Paper_Space0
340
26
  0
BLOCK_RECORD
  5
7B
330
1
100
AcDbSymbolTableRecord
100
AcDbBlockTableRecord
  2
*D1
340
0
  0
BLOCK_RECORD
  5
89
330
1
100
AcDbSymbolTableRecord
100
AcDbBlockTableRecord
  2
_Open30
340
0
102
{BLKREFS
331
8F
331
90
331
AA
331
AB
331
C4
331
C5
331
E2
331
E3
331
F5
331
F6
331
111
331
112
331
12F
331
130
331
180
331
181
331
19B
331
19C
331
1B6
331
1B7
331
1D3
331
1D4
331
1EF
331
1F0
331
20B
331
20C
331
221
331
26F
331
270
331
28C
331
28D
331
2A8
331
2A9
331
2C4
331
2C5
331
2DF
331
322
331
323
102
}
  0
BLOCK_RECORD
  5
9D
330
1
100
AcDbSymbolTableRecord
100
AcDbBlockTableRecord
  2
*D3
340
0
  0
BLOCK_RECORD
  5
B8
330
1
100
AcDbSymbolTableRecord
100
AcDbBlockTableRecord
  2
*D4
340
0
  0
BLOCK_RECORD
  5
D2
330
1
100
AcDbSymbolTableRecord
100
AcDbBlockTableRecord
  2
*D5
340
0
  0
BLOCK_RECORD
  5
E7
330
1
100
AcDbSymbolTableRecord
100
AcDbBlockTableRecord
  2
*D6
340
0
  0
BLOCK_RECORD
  5
103
330
1
100
AcDbSymbolTableRecord
100
AcDbBlockTableRecord
  2
*D7
340
0
  0
BLOCK_RECORD
  5
123
330
1
100
AcDbSymbolTableRecord
100
AcDbBlockTableRecord
  2
*D8
340
0
  0
BLOCK_RECORD
  5
173
330
1
100
AcDbSymbolTableRecord
100
AcDbBlockTableRecord
  2
*D9
340
0
  0
BLOCK_RECORD
  5
18E
330
1
100
AcDbSymbolTableRecord
100
AcDbBlockTableRecord
  2
*D10
340
0
  0
BLOCK_RECORD
  5
1A9
330
1
100
AcDbSymbolTableRecord
100
AcDbBlockTableRecord
  2
*D11
340
0
  0
BLOCK_RECORD
  5
1C4
330
1
100
AcDbSymbolTableRecord
100
AcDbBlockTableRecord
  2
*D12
340
0
  0
BLOCK_RECORD
  5
1E2
330
1
100
AcDbSymbolTableRecord
100
AcDbBlockTableRecord
  2
*D13
340
0
  0
BLOCK_RECORD
  5
1FD
330
1
100
AcDbSymbolTableRecord
100
AcDbBlockTableRecord
  2
*D14
340
0
  0
BLOCK_RECORD
  5
214
330
1
100
AcDbSymbolTableRecord
100
AcDbBlockTableRecord
  2
*D15
340
0
  0
BLOCK_RECORD
  5
227
330
1
100
AcDbSymbolTableRecord
100
AcDbBlockTableRecord
  2
SW_CENTERMARKSYMBOL_0
340
0
102
{BLKREFS
331
232
102
}
  0
BLOCK_RECORD
  5
233
330
1
100
AcDbSymbolTableRecord
100
AcDbBlockTableRecord
  2
SW_CENTERMARKSYMBOL_1
340
0
102
{BLKREFS
331
23E
102
}
  0
BLOCK_RECORD
  5
23F
330
1
100
AcDbSymbolTableRecord
100
AcDbBlockTableRecord
  2
SW_CENTERMARKSYMBOL_2
340
0
102
{BLKREFS
331
24A
102
}
  0
BLOCK_RECORD
  5
24B
330
1
100
AcDbSymbolTableRecord
100
AcDbBlockTableRecord
  2
SW_CENTERMARKSYMBOL_3
340
0
102
{BLKREFS
331
256
102
}
  0
BLOCK_RECORD
  5
261
330
1
100
AcDbSymbolTableRecord
100
AcDbBlockTableRecord
  2
*D20
340
0
  0
BLOCK_RECORD
  5
27F
330
1
100
AcDbSymbolTableRecord
100
AcDbBlockTableRecord
  2
*D21
340
0
  0
BLOCK_RECORD
  5
29A
330
1
100
AcDbSymbolTableRecord
100
AcDbBlockTableRecord
  2
*D22
340
0
  0
BLOCK_RECORD
  5
2B7
330
1
100
AcDbSymbolTableRecord
100
AcDbBlockTableRecord
  2
*D23
340
0
  0
BLOCK_RECORD
  5
2D2
330
1
100
AcDbSymbolTableRecord
100
AcDbBlockTableRecord
  2
*D24
340
0
  0
BLOCK_RECORD
  5
2EC
330
1
100
AcDbSymbolTableRecord
100
AcDbBlockTableRecord
  2
SW_CENTERMARKSYMBOL_4
340
0
102
{BLKREFS
331
2F7
102
}
  0
BLOCK_RECORD
  5
2F8
330
1
100
AcDbSymbolTableRecord
100
AcDbBlockTableRecord
  2
SW_CENTERMARKSYMBOL_5
340
0
102
{BLKREFS
331
303
102
}
  0
BLOCK_RECORD
  5
304
330
1
100
AcDbSymbolTableRecord
100
AcDbBlockTableRecord
  2
SW_CENTERMARKSYMBOL_6
340
0
102
{BLKREFS
331
30F
102
}
  0
BLOCK_RECORD
  5
310
330
1
100
AcDbSymbolTableRecord
100
AcDbBlockTableRecord
  2
SW_CENTERMARKSYMBOL_7
340
0
102
{BLKREFS
331
31B
102
}
  0
BLOCK_RECORD
  5
31C
330
1
100
AcDbSymbolTableRecord
100
AcDbBlockTableRecord
  2
SW_PROJECTIONARROW_0
340
0
102
{BLKREFS
331
327
102
}
  0
ENDTAB
  0
ENDSEC
  0
SECTION
  2
BLOCKS
  0
BLOCK
  5
20
330
1F
100
AcDbEntity
  8
0
100
AcDbBlockBegin
  2
*Model_Space
 70
     0
 10
0.0
 20
0.0
 30
0.0
  3
*Model_Space
  1

  0
ENDBLK
  5
21
330
1F
100
AcDbEntity
  8
0
100
AcDbBlockEnd
  0
BLOCK
  5
1C
330
1B
100
AcDbEntity
 67
     1
  8
0
100
AcDbBlockBegin
  2
*Paper_Space
 70
     0
 10
0.0
 20
0.0
 30
0.0
  3
*Paper_Space
  1

  0
ENDBLK
  5
1D
330
1B
100
AcDbEntity
 67
     1
  8
0
100
AcDbBlockEnd
  0
BLOCK
  5
24
330
23
100
AcDbEntity
 67
     1
  8
0
100
AcDbBlockBegin
  2
*Paper_Space0
 70
     0
 10
0.0
 20
0.0
 30
0.0
  3
*Paper_Space0
  1

  0
ENDBLK
  5
25
330
23
100
AcDbEntity
 67
     1
  8
0
100
AcDbBlockEnd
  0
BLOCK
  5
86
330
7B
100
AcDbEntity
  8
0
100
AcDbBlockBegin
  2
*D1
 70
     1
 10
0.0
 20
0.0
 30
0.0
  3
*D1
  1

  0
INSERT
  5
8F
330
7B
100
AcDbEntity
  8
0
  6
Continuous
 62
     7
370
     0
100
AcDbBlockReference
  2
_Open30
 10
530.9375571887999
 20
790.4859422216999
 30
0.1
 41
10.0
 42
10.0
 50
90.0
  0
INSERT
  5
90
330
7B
100
AcDbEntity
  8
0
  6
Continuous
 62
     7
370
     0
100
AcDbBlockReference
  2
_Open30
 10
530.9375571887999
 20
725.4859422216999
 30
0.1
 41
10.0
 42
10.0
 50
270.0
  0
LINE
  5
91
330
7B
100
AcDbEntity
  8
0
  6
Continuous
 62
     7
370
     0
100
AcDbLine
 10
505.5532464779
 20
738.2742195444
 30
0.0
 11
518.2454018332999
 21
738.2742195444
 31
0.0
  0
LINE
  5
92
330
7B
100
AcDbEntity
  8
0
  6
Continuous
 62
     7
370
     0
100
AcDbLine
 10
518.2454018332999
 20
738.2742195444
 30
0.0
 11
518.2454018332999
 21
744.0023531157001
 31
0.0
  0
LINE
  5
93
330
7B
100
AcDbEntity
  8
0
  6
Continuous
 62
     7
370
     0
100
AcDbLine
 10
505.5532464779
 20
738.2742195444
 30
0.0
 11
505.5532464779
 21
744.0023531157001
 31
0.0
  0
LINE
  5
94
330
7B
100
AcDbEntity
  8
0
  6
Continuous
 62
     7
370
     0
100
AcDbLine
 10
505.5532464779
 20
777.6976648989999
 30
0.0
 11
518.2454018332999
 21
777.6976648989999
 31
0.0
  0
LINE
  5
95
330
7B
100
AcDbEntity
  8
0
  6
Continuous
 62
     7
370
     0
100
AcDbLine
 10
518.2454018332999
 20
777.6976648989999
 30
0.0
 11
518.2454018332999
 21
771.9695313277
 31
0.0
  0
LINE
  5
96
330
7B
100
AcDbEntity
  8
0
  6
Continuous
 62
     7
370
     0
100
AcDbLine
 10
505.5532464779
 20
777.6976648989999
 30
0.0
 11
505.5532464779
 21
771.9695313277
 31
0.0
  0
LINE
  5
97
330
7B
100
AcDbEntity
  8
0
  6
Continuous
 62
     7
370
     0
100
AcDbLine
 10
496.6253045573
 20
790.4859422216999
 30
0.0
 11
534.9375571887999
 21
790.4859422216999
 31
0.0
  0
LINE
  5
98
330
7B
100
AcDbEntity
  8
0
  6
Continuous
 62
     7
370
     0
100
AcDbLine
 10
490.6253045573
 20
725.4859422216999
 30
0.0
 11
534.9375571887999
 21
725.4859422216999
 31
0.0
  0
LINE
  5
99
330
7B
100
AcDbEntity
  8
0
  6
Continuous
 62
     7
370
     0
100
AcDbLine
 10
530.9375571887999
 20
790.4859422216999
 30
0.0
 11
530.9375571887999
 21
725.4859422216999
 31
0.0
  0
MTEXT
  5
9A
330
7B
100
AcDbEntity
  8
0
  6
Continuous
 62
     7
370
     0
100
AcDbMText
 10
519.8539207087
 20
751.6398645439998
 30
0.0
 40
9.525
 41
0.0
 71
     1
 72
     1
  1
65
  7
SLDTEXTSTYLE0
 11
-0.000000000000007
 21
1.0
 31
0.0
 73
     1
 44
1.0
1001
ACAD
1000
MTEXTBEGIN
1070
    73
1070
     1
1070
    44
1040
1.0
1070
    74
1070
     0
1000
MTEXTEND
  0
MTEXT
  5
9B
330
7B
100
AcDbEntity
  8
0
  6
Continuous
 62
     7
370
     0
100
AcDbMText
 10
507.1617653533
 20
744.0023531157001
 30
0.0
 40
9.525
 41
0.0
 71
     1
 72
     1
  1
2.559
  7
SLDTEXTSTYLE0
 11
-0.000000000000007
 21
1.0
 31
0.0
 73
     1
 44
1.0
1001
ACAD
1000
MTEXTBEGIN
1070
    73
1070
     1
1070
    44
1040
1.0
1070
    74
1070
     0
1000
MTEXTEND
  0
ENDBLK
  5
87
330
7B
100
AcDbEntity
  8
0
100
AcDbBlockEnd
  0
BLOCK
  5
8A
330
89
100
AcDbEntity
  8
0
100
AcDbBlockBegin
  2
_Open30
 70
     0
 10
0.0
 20
0.0
 30
0.0
  3
_Open30
  1

  0
LINE
  5
8C
330
89
100
AcDbEntity
  8
0
  6
ByBlock
 62
     0
370
    -2
100
AcDbLine
 10
-1.0
 20
0.267949
 30
0.0
 11
0.0
 21
0.0
 31
0.0
  0
LINE
  5
8D
330
89
100
AcDbEntity
  8
0
  6
ByBlock
 62
     0
370
    -2
100
AcDbLine
 10
0.0
 20
0.0
 30
0.0
 11
-1.0
 21
-0.267949
 31
0.0
  0
LINE
  5
8E
330
89
100
AcDbEntity
  8
0
  6
ByBlock
 62
     0
370
    -2
100
AcDbLine
 10
0.0
 20
0.0
 30
0.0
 11
-1.0
 21
0.0
 31
0.0
  0
ENDBLK
  5
8B
330
89
100
AcDbEntity
  8
0
100
AcDbBlockEnd
  0
BLOCK
  5
A8
330
9D
100
AcDbEntity
  8
0
100
AcDbBlockBegin
  2
*D3
 70
     1
 10
0.0
 20
0.0
 30
0.0
  3
*D3
  1

  0
INSERT
  5
AA
330
9D
100
AcDbEntity
  8
0
  6
Continuous
 62
     7
370
     0
100
AcDbBlockReference
  2
_Open30
 10
366.5547751687999
 20
761.4154128332001
 30
0.1
 41
10.0
 42
10.0
 50
315.0
  0
INSERT
  5
AB
330
9D
100
AcDbEntity
  8
0
  6
Continuous
 62
     7
370
     0
100
AcDbBlockReference
  2
_Open30
 10
264.0242918968
 20
863.9458961053
 30
0.1
 41
10.0
 42
10.0
 50
135.0
  0
LINE
  5
AC
330
9D
100
AcDbEntity
  8
0
  6
Continuous
 62
     7
370
     0
100
AcDbLine
 10
319.3006589982
 20
844.5683654825998
 30
0.0
 11
310.3259498785
 21
835.5936563628999
 31
0.0
  0
LINE
  5
AD
330
9D
100
AcDbEntity
  8
0
  6
Continuous
 62
     7
370
     0
100
AcDbLine
 10
310.3259498785
 20
835.5936563628999
 30
0.0
 11
314.3763519703
 21
831.5432542711999
 31
0.0
  0
LINE
  5
AE
330
9D
100
AcDbEntity
  8
0
  6
Continuous
 62
     7
370
     0
100
AcDbLine
 10
319.3006589982
 20
844.5683654825998
 30
0.0
 11
323.35106109
 21
840.5179633908998
 31
0.0
  0
LINE
  5
AF
330
9D
100
AcDbEntity
  8
0
  6
Continuous
 62
     7
370
     0
100
AcDbLine
 10
347.1772445462
 20
816.6917799347
 30
0.0
 11
338.2025354265
 21
807.7170708150001
 31
0.0
  0
LINE
  5
B0
330
9D
100
AcDbEntity
  8
0
  6
Continuous
 62
     7
370
     0
100
AcDbLine
 10
338.2025354265
 20
807.7170708150001
 30
0.0
 11
334.1521333347
 21
811.7674729067999
 31
0.0
  0
LINE
  5
B1
330
9D
100
AcDbEntity
  8
0
  6
Continuous
 62
     7
370
     0
100
AcDbLine
 10
347.1772445462
 20
816.6917799347
 30
0.0
 11
343.1268424544
 21
820.7421820264999
 31
0.0
  0
LINE
  5
B2
330
9D
100
AcDbEntity
  8
0
  6
Continuous
 62
     7
370
     0
100
AcDbLine
 10
392.7968774325
 20
787.6575150969999
 30
0.0
 11
363.7263480441001
 21
758.5869857085
 31
0.0
  0
LINE
  5
B3
330
9D
100
AcDbEntity
  8
0
  6
Continuous
 62
     7
370
     0
100
AcDbLine
 10
290.2663941605
 20
890.1879983689999
 30
0.0
 11
261.195864772
 21
861.1174689805999
 31
0.0
  0
LINE
  5
B4
330
9D
100
AcDbEntity
  8
0
  6
Continuous
 62
     7
370
     0
100
AcDbLine
 10
366.5547751687999
 20
761.4154128332001
 30
0.0
 11
264.0242918968
 21
863.9458961053
 31
0.0
  0
MTEXT
  5
B5
330
9D
100
AcDbEntity
  8
0
  6
Continuous
 62
     7
370
     0
100
AcDbMText
 10
316.3941796822
 20
827.2506373503999
 30
0.0
 40
9.525
 41
0.0
 71
     1
 72
     1
  1
145
  7
SLDTEXTSTYLE0
 11
0.7071067811865316
 21
-0.7071067811865636
 31
0.0
 73
     1
 44
1.0
1001
ACAD
1000
MTEXTBEGIN
1070
    73
1070
     1
1070
    44
1040
1.0
1070
    74
1070
     0
1000
MTEXTEND
  0
MTEXT
  5
B6
330
9D
100
AcDbEntity
  8
0
  6
Continuous
 62
     7
370
     0
100
AcDbMText
 10
322.2136664855
 20
839.3805687863999
 30
0.0
 40
9.525
 41
0.0
 71
     1
 72
     1
  1
5.709
  7
SLDTEXTSTYLE0
 11
0.7071067811865316
 21
-0.7071067811865636
 31
0.0
 73
     1
 44
1.0
1001
ACAD
1000
MTEXTBEGIN
1070
    73
1070
     1
1070
    44
1040
1.0
1070
    74
1070
     0
1000
MTEXTEND
  0
ENDBLK
  5
A9
330
9D
100
AcDbEntity
  8
0
100
AcDbBlockEnd
  0
BLOCK
  5
C2
330
B8
100
AcDbEntity
  8
0
100
AcDbBlockBegin
  2
*D4
 70
     1
 10
0.0
 20
0.0
 30
0.0
  3
*D4
  1

  0
INSERT
  5
C4
330
B8
100
AcDbEntity
  8
0
  6
Continuous
 62
     7
370
     0
100
AcDbBlockReference
  2
_Open30
 10
395.6253045573
 20
687.8698589634
 30
0.1
 41
10.0
 42
10.0
 50
180.0
  0
INSERT
  5
C5
330
B8
100
AcDbEntity
  8
0
  6
Continuous
 62
     7
370
     0
100
AcDbBlockReference
  2
_Open30
 10
492.6253045573
 20
687.8698589634
 30
0.1
 41
10.0
 42
10.0
 50
360.0
  0
LINE
  5
C6
330
B8
100
AcDbEntity
  8
0
  6
Continuous
 62
     7
370
     0
100
AcDbLine
 10
424.41358188
 20
713.2541696742999
 30
0.0
 11
424.41358188
 21
700.5620143188
 31
0.0
  0
LINE
  5
C7
330
B8
100
AcDbEntity
  8
0
  6
Continuous
 62
     7
370
     0
100
AcDbLine
 10
424.41358188
 20
700.5620143188
 30
0.0
 11
430.1417154512999
 21
700.5620143188
 31
0.0
  0
LINE
  5
C8
330
B8
100
AcDbEntity
  8
0
  6
Continuous
 62
     7
370
     0
100
AcDbLine
 10
424.41358188
 20
713.2541696742999
 30
0.0
 11
430.1417154512999
 21
713.2541696742999
 31
0.0
  0
LINE
  5
C9
330
B8
100
AcDbEntity
  8
0
  6
Continuous
 62
     7
370
     0
100
AcDbLine
 10
463.8370272344999
 20
713.2541696742999
 30
0.0
 11
463.8370272344999
 21
700.5620143188
 31
0.0
  0
LINE
  5
CA
330
B8
100
AcDbEntity
  8
0
  6
Continuous
 62
     7
370
     0
100
AcDbLine
 10
463.8370272344999
 20
700.5620143188
 30
0.0
 11
458.1088936633
 21
700.5620143188
 31
0.0
  0
LINE
  5
CB
330
B8
100
AcDbEntity
  8
0
  6
Continuous
 62
     7
370
     0
100
AcDbLine
 10
463.8370272344999
 20
713.2541696742999
 30
0.0
 11
458.1088936633
 21
713.2541696742999
 31
0.0
  0
LINE
  5
CC
330
B8
100
AcDbEntity
  8
0
  6
Continuous
 62
     7
370
     0
100
AcDbLine
 10
395.6253045573
 20
727.4859422216999
 30
0.0
 11
395.6253045573
 21
683.8698589634
 31
0.0
  0
LINE
  5
CD
330
B8
100
AcDbEntity
  8
0
  6
Continuous
 62
     7
370
     0
100
AcDbLine
 10
492.6253045573
 20
727.4859422216999
 30
0.0
 11
492.6253045573
 21
683.8698589634
 31
0.0
  0
LINE
  5
CE
330
B8
100
AcDbEntity
  8
0
  6
Continuous
 62
     7
370
     0
100
AcDbLine
 10
395.6253045573
 20
687.8698589634
 30
0.0
 11
492.6253045573
 21
687.8698589634
 31
0.0
  0
MTEXT
  5
CF
330
B8
100
AcDbEntity
  8
0
  6
Continuous
 62
     7
370
     0
100
AcDbMText
 10
437.7792268796
 20
698.9534954435001
 30
0.0
 40
9.525
 41
0.0
 71
     1
 72
     1
  1
97
  7
SLDTEXTSTYLE0
 73
     1
 44
1.0
1001
ACAD
1000
MTEXTBEGIN
1070
    73
1070
     1
1070
    44
1040
1.0
1070
    74
1070
     0
1000
MTEXTEND
  0
MTEXT
  5
D0
330
B8
100
AcDbEntity
  8
0
  6
Continuous
 62
     7
370
     0
100
AcDbMText
 10
430.1417154512999
 20
711.6456507988999
 30
0.0
 40
9.525
 41
0.0
 71
     1
 72
     1
  1
3.819
  7
SLDTEXTSTYLE0
 73
     1
 44
1.0
1001
ACAD
1000
MTEXTBEGIN
1070
    73
1070
     1
1070
    44
1040
1.0
1070
    74
1070
     0
1000
MTEXTEND
  0
ENDBLK
  5
C3
330
B8
100
AcDbEntity
  8
0
100
AcDbBlockEnd
  0
BLOCK
  5
DE
330
D2
100
AcDbEntity
  8
0
100
AcDbBlockBegin
  2
*D5
 70
     1
 10
0.0
 20
0.0
 30
0.0
  3
*D5
  1

  0
ARC
  5
E1
330
D2
100
AcDbEntity
  8
0
  6
Continuous
 62
     7
370
     0
100
AcDbCircle
 10
400.6253045573
 20
792.5570100336
 30
0.0
 40
58.92296804108253
100
AcDbArc
 50
90.0
 51
135.0
  0
INSERT
  5
E2
330
D2
100
AcDbEntity
  8
0
  6
Continuous
 62
     7
370
     0
100
AcDbBlockReference
  2
_Open30
 10
400.6253045573
 20
851.4799780745999
 30
0.1
 41
10.0
 42
10.0
 50
4.816034263999999
  0
INSERT
  5
E3
330
D2
100
AcDbEntity
  8
0
  6
Continuous
 62
     7
370
     0
100
AcDbBlockReference
  2
_Open30
 10
358.9604742878
 20
834.2218403030999
 30
0.1
 41
10.0
 42
10.0
 50
220.183965736
  0
LINE
  5
E4
330
D2
100
AcDbEntity
  8
0
  6
Continuous
 62
     7
370
     0
100
AcDbLine
 10
400.6253045573
 20
794.0717286592999
 30
0.0
 11
400.6253045573
 21
855.4799780746
 31
0.0
  0
MTEXT
  5
E5
330
D2
100
AcDbEntity
  8
0
  6
Continuous
 62
     7
370
     0
100
AcDbMText
 10
364.1021687595
 20
853.6159451358999
 30
0.0
 40
9.525
 41
0.0
 71
     1
 72
     1
  1
45°
  7
SLDTEXTSTYLE0
 11
0.9360194783199034
 21
0.3519482010264239
 31
0.0
 73
     1
 44
1.0
1001
ACAD
1000
MTEXTBEGIN
1070
    73
1070
     1
1070
    44
1040
1.0
1070
    74
1070
     0
1000
MTEXTEND
  0
ENDBLK
  5
DF
330
D2
100
AcDbEntity
  8
0
100
AcDbBlockEnd
  0
BLOCK
  5
F2
330
E7
100
AcDbEntity
  8
0
100
AcDbBlockBegin
  2
*D6
 70
     1
 10
0.0
 20
0.0
 30
0.0
  3
*D6
  1

  0
INSERT
  5
F5
330
E7
100
AcDbEntity
  8
0
  6
Continuous
 62
     7
370
     0
100
AcDbBlockReference
  2
_Open30
 10
637.4316651174999
 20
725.4859422216999
 30
0.1
 41
10.0
 42
10.0
 50
270.0
  0
INSERT
  5
F6
330
E7
100
AcDbEntity
  8
0
  6
Continuous
 62
     7
370
     0
100
AcDbBlockReference
  2
_Open30
 10
637.4316651174999
 20
896.5519593996999
 30
0.1
 41
10.0
 42
10.0
 50
90.0
  0
LINE
  5
F7
330
E7
100
AcDbEntity
  8
0
  6
Continuous
 62
     7
370
     0
100
AcDbLine
 10
612.0473544065999
 20
791.3072281333999
 30
0.0
 11
624.739509762
 21
791.3072281333999
 31
0.0
  0
LINE
  5
F8
330
E7
100
AcDbEntity
  8
0
  6
Continuous
 62
     7
370
     0
100
AcDbLine
 10
624.739509762
 20
791.3072281333999
 30
0.0
 11
624.739509762
 21
797.0353617047
 31
0.0
  0
LINE
  5
F9
330
E7
100
AcDbEntity
  8
0
  6
Continuous
 62
     7
370
     0
100
AcDbLine
 10
612.0473544065999
 20
791.3072281333999
 30
0.0
 11
612.0473544065999
 21
797.0353617047
 31
0.0
  0
LINE
  5
FA
330
E7
100
AcDbEntity
  8
0
  6
Continuous
 62
     7
370
     0
100
AcDbLine
 10
612.0473544065999
 20
830.7306734879999
 30
0.0
 11
624.739509762
 21
830.7306734879999
 31
0.0
  0
LINE
  5
FB
330
E7
100
AcDbEntity
  8
0
  6
Continuous
 62
     7
370
     0
100
AcDbLine
 10
624.739509762
 20
830.7306734879999
 30
0.0
 11
624.739509762
 21
825.0025399167
 31
0.0
  0
LINE
  5
FC
330
E7
100
AcDbEntity
  8
0
  6
Continuous
 62
     7
370
     0
100
AcDbLine
 10
612.0473544065999
 20
830.7306734879999
 30
0.0
 11
612.0473544065999
 21
825.0025399167
 31
0.0
  0
LINE
  5
FD
330
E7
100
AcDbEntity
  8
0
  6
Continuous
 62
     7
370
     0
100
AcDbLine
 10
490.6253045573
 20
725.4859422216999
 30
0.0
 11
641.4316651174999
 21
725.4859422216999
 31
0.0
  0
LINE
  5
FE
330
E7
100
AcDbEntity
  8
0
  6
Continuous
 62
     7
370
     0
100
AcDbLine
 10
595.6202539233999
 20
896.5519593996999
 30
0.0
 11
641.4316651174999
 21
896.5519593996999
 31
0.0
  0
LINE
  5
FF
330
E7
100
AcDbEntity
  8
0
  6
Continuous
 62
     7
370
     0
100
AcDbLine
 10
637.4316651174999
 20
725.4859422216999
 30
0.0
 11
637.4316651174999
 21
896.5519593996999
 31
0.0
  0
MTEXT
  5
100
330
E7
100
AcDbEntity
  8
0
  6
Continuous
 62
     7
370
     0
100
AcDbMText
 10
626.3480286374
 20
801.4975198966999
 30
0.0
 40
9.525
 41
0.0
 71
     1
 72
     1
  1
171
  7
SLDTEXTSTYLE0
 11
-0.0000000000000002
 21
1.0
 31
0.0
 73
     1
 44
1.0
1001
ACAD
1000
MTEXTBEGIN
1070
    73
1070
     1
1070
    44
1040
1.0
1070
    74
1070
     0
1000
MTEXTEND
  0
MTEXT
  5
101
330
E7
100
AcDbEntity
  8
0
  6
Continuous
 62
     7
370
     0
100
AcDbMText
 10
613.655873282
 20
797.0353617047
 30
0.0
 40
9.525
 41
0.0
 71
     1
 72
     1
  1
6.735
  7
SLDTEXTSTYLE0
 11
-0.0000000000000002
 21
1.0
 31
0.0
 73
     1
 44
1.0
1001
ACAD
1000
MTEXTBEGIN
1070
    73
1070
     1
1070
    44
1040
1.0
1070
    74
1070
     0
1000
MTEXTEND
  0
ENDBLK
  5
F3
330
E7
100
AcDbEntity
  8
0
100
AcDbBlockEnd
  0
BLOCK
  5
10E
330
103
100
AcDbEntity
  8
0
100
AcDbBlockBegin
  2
*D7
 70
     1
 10
0.0
 20
0.0
 30
0.0
  3
*D7
  1

  0
INSERT
  5
111
330
103
100
AcDbEntity
  8
0
  6
Continuous
 62
     7
370
     0
100
AcDbBlockReference
  2
_Open30
 10
271.8606373609
 20
914.2506094180999
 30
0.1
 41
10.0
 42
10.0
 50
45.0
  0
INSERT
  5
112
330
103
100
AcDbEntity
  8
0
  6
Continuous
 62
     7
370
     0
100
AcDbBlockReference
  2
_Open30
 10
275.3961712668
 20
917.7861433239998
 30
0.1
 41
10.0
 42
10.0
 50
225.0
  0
LINE
  5
113
330
103
100
AcDbEntity
  8
0
  6
Continuous
 62
     7
370
     0
100
AcDbLine
 10
205.3582984279
 20
920.5559287447
 30
0.0
 11
205.3582984279
 21
907.8637733892
 31
0.0
  0
LINE
  5
114
330
103
100
AcDbEntity
  8
0
  6
Continuous
 62
     7
370
     0
100
AcDbLine
 10
205.3582984279
 20
907.8637733892
 30
0.0
 11
211.0864319992
 21
907.8637733892
 31
0.0
  0
LINE
  5
115
330
103
100
AcDbEntity
  8
0
  6
Continuous
 62
     7
370
     0
100
AcDbLine
 10
205.3582984279
 20
920.5559287447
 30
0.0
 11
211.0864319992
 21
920.5559287447
 31
0.0
  0
LINE
  5
116
330
103
100
AcDbEntity
  8
0
  6
Continuous
 62
     7
370
     0
100
AcDbLine
 10
244.7817437825
 20
920.5559287447
 30
0.0
 11
244.7817437825
 21
907.8637733892
 31
0.0
  0
LINE
  5
117
330
103
100
AcDbEntity
  8
0
  6
Continuous
 62
     7
370
     0
100
AcDbLine
 10
244.7817437825
 20
907.8637733892
 30
0.0
 11
239.0536102112
 21
907.8637733892
 31
0.0
  0
LINE
  5
118
330
103
100
AcDbEntity
  8
0
  6
Continuous
 62
     7
370
     0
100
AcDbLine
 10
244.7817437825
 20
920.5559287447
 30
0.0
 11
239.0536102112
 21
920.5559287447
 31
0.0
  0
LINE
  5
119
330
103
100
AcDbEntity
  8
0
  6
Continuous
 62
     7
370
     0
100
AcDbLine
 10
290.2663941605
 20
895.8448526185001
 30
0.0
 11
269.0322102361
 21
917.0790365428999
 31
0.0
  0
LINE
  5
11A
330
103
100
AcDbEntity
  8
0
  6
Continuous
 62
     7
370
     0
100
AcDbLine
 10
293.8019280664
 20
899.3803865244
 30
0.0
 11
272.5677441421
 21
920.6145704487999
 31
0.0
  0
LINE
  5
11B
330
103
100
AcDbEntity
  8
0
  6
Continuous
 62
     7
370
     0
100
AcDbLine
 10
271.8606373609
 20
914.2506094180999
 30
0.0
 11
257.7185017371
 21
900.1084737943999
 31
0.0
  0
LINE
  5
11C
330
103
100
AcDbEntity
  8
0
  6
Continuous
 62
     7
370
     0
100
AcDbLine
 10
271.8606373609
 20
914.2506094180999
 30
0.0
 11
275.3961712668
 21
917.7861433239998
 31
0.0
  0
LINE
  5
11D
330
103
100
AcDbEntity
  8
0
  6
Continuous
 62
     7
370
     0
100
AcDbLine
 10
275.3961712668
 20
917.7861433239998
 30
0.0
 11
289.5383068905
 21
931.9282789478
 31
0.0
  0
LINE
  5
11E
330
103
100
AcDbEntity
  8
0
  6
Continuous
 62
     7
370
     0
100
AcDbLine
 10
273.6284043138
 20
916.0183763711
 30
0.0
 11
253.0411216396
 21
895.1716180338001
 31
0.0
  0
LINE
  5
11F
330
103
100
AcDbEntity
  8
0
  6
Continuous
 62
     7
370
     0
100
AcDbLine
 10
253.0411216396
 20
895.1716180338001
 30
0.0
 11
197.0989205709
 21
895.1716180338001
 31
0.0
  0
MTEXT
  5
120
330
103
100
AcDbEntity
  8
0
  6
Continuous
 62
     7
370
     0
100
AcDbMText
 10
221.8992966638
 20
906.2552545139
 30
0.0
 40
9.525
 41
0.0
 71
     1
 72
     1
  1
5
  7
SLDTEXTSTYLE0
 73
     1
 44
1.0
1001
ACAD
1000
MTEXTBEGIN
1070
    73
1070
     1
1070
    44
1040
1.0
1070
    74
1070
     0
1000
MTEXTEND
  0
MTEXT
  5
121
330
103
100
AcDbEntity
  8
0
  6
Continuous
 62
     7
370
     0
100
AcDbMText
 10
211.0864319992
 20
918.9474098692999
 30
0.0
 40
9.525
 41
0.0
 71
     1
 72
     1
  1
0.197
  7
SLDTEXTSTYLE0
 73
     1
 44
1.0
1001
ACAD
1000
MTEXTBEGIN
1070
    73
1070
     1
1070
    44
1040
1.0
1070
    74
1070
     0
1000
MTEXTEND
  0
ENDBLK
  5
10F
330
103
100
AcDbEntity
  8
0
100
AcDbBlockEnd
  0
BLOCK
  5
12D
330
123
100
AcDbEntity
  8
0
100
AcDbBlockBegin
  2
*D8
 70
     1
 10
0.0
 20
0.0
 30
0.0
  3
*D8
  1

  0
INSERT
  5
12F
330
123
100
AcDbEntity
  8
0
  6
Continuous
 62
     7
370
     0
100
AcDbBlockReference
  2
_Open30
 10
595.1557878293
 20
653.4039278799999
 30
-91.6
 41
10.0
 42
10.0
 50
360.0
  0
INSERT
  5
130
330
123
100
AcDbEntity
  8
0
  6
Continuous
 62
     7
370
     0
100
AcDbBlockReference
  2
_Open30
 10
293.0948212852
 20
653.4039278799999
 30
-91.6
 41
10.0
 42
10.0
 50
180.0
  0
LINE
  5
131
330
123
100
AcDbEntity
  8
0
  6
Continuous
 62
     7
370
     0
100
AcDbLine
 10
421.2382286437999
 20
678.7882385908
 30
0.0
 11
421.2382286437999
 21
666.0960832354
 31
0.0
  0
LINE
  5
132
330
123
100
AcDbEntity
  8
0
  6
Continuous
 62
     7
370
     0
100
AcDbLine
 10
421.2382286437999
 20
666.0960832354
 30
0.0
 11
426.966362215
 21
666.0960832354
 31
0.0
  0
LINE
  5
133
330
123
100
AcDbEntity
  8
0
  6
Continuous
 62
     7
370
     0
100
AcDbLine
 10
421.2382286437999
 20
678.7882385908
 30
0.0
 11
426.966362215
 21
678.7882385908
 31
0.0
  0
LINE
  5
134
330
123
100
AcDbEntity
  8
0
  6
Continuous
 62
     7
370
     0
100
AcDbLine
 10
467.0123804708
 20
678.7882385908
 30
0.0
 11
467.0123804708
 21
666.0960832354
 31
0.0
  0
LINE
  5
135
330
123
100
AcDbEntity
  8
0
  6
Continuous
 62
     7
370
     0
100
AcDbLine
 10
467.0123804708
 20
666.0960832354
 30
0.0
 11
461.2842468995999
 21
666.0960832354
 31
0.0
  0
LINE
  5
136
330
123
100
AcDbEntity
  8
0
  6
Continuous
 62
     7
370
     0
100
AcDbLine
 10
467.0123804708
 20
678.7882385908
 30
0.0
 11
461.2842468995999
 21
678.7882385908
 31
0.0
  0
LINE
  5
137
330
123
100
AcDbEntity
  8
0
  6
Continuous
 62
     7
370
     0
100
AcDbLine
 10
595.1557878293
 20
889.0164254936999
 30
0.0
 11
595.1557878293
 21
649.4039278799999
 31
0.0
  0
LINE
  5
138
330
123
100
AcDbEntity
  8
0
  6
Continuous
 62
     7
370
     0
100
AcDbLine
 10
293.0948212852
 20
889.0164254936999
 30
0.0
 11
293.0948212852
 21
649.4039278799999
 31
0.0
  0
LINE
  5
139
330
123
100
AcDbEntity
  8
0
  6
Continuous
 62
     7
370
     0
100
AcDbLine
 10
595.1557878293
 20
653.4039278799999
 30
0.0
 11
293.0948212852
 21
653.4039278799999
 31
0.0
  0
MTEXT
  5
13A
330
123
100
AcDbEntity
  8
0
  6
Continuous
 62
     7
370
     0
100
AcDbMText
 10
434.6038736432999
 20
664.4875643599999
 30
0.0
 40
9.525
 41
0.0
 71
     1
 72
     1
  1
302
  7
SLDTEXTSTYLE0
 73
     1
 44
1.0
1001
ACAD
1000
MTEXTBEGIN
1070
    73
1070
     1
1070
    44
1040
1.0
1070
    74
1070
     0
1000
MTEXTEND
  0
MTEXT
  5
13B
330
123
100
AcDbEntity
  8
0
  6
Continuous
 62
     7
370
     0
100
AcDbMText
 10
426.966362215
 20
677.1797197155
 30
0.0
 40
9.525
 41
0.0
 71
     1
 72
     1
  1
11.892
  7
SLDTEXTSTYLE0
 73
     1
 44
1.0
1001
ACAD
1000
MTEXTBEGIN
1070
    73
1070
     1
1070
    44
1040
1.0
1070
    74
1070
     0
1000
MTEXTEND
  0
ENDBLK
  5
12E
330
123
100
AcDbEntity
  8
0
100
AcDbBlockEnd
  0
BLOCK
  5
17E
330
173
100
AcDbEntity
  8
0
100
AcDbBlockBegin
  2
*D9
 70
     1
 10
0.0
 20
0.0
 30
0.0
  3
*D9
  1

  0
INSERT
  5
180
330
173
100
AcDbEntity
  8
0
  6
Continuous
 62
     7
370
     0
100
AcDbBlockReference
  2
_Open30
 10
671.8195708387
 20
582.8884405623
 30
85.63300858899999
 41
10.0
 42
10.0
 50
90.0
  0
INSERT
  5
181
330
173
100
AcDbEntity
  8
0
  6
Continuous
 62
     7
370
     0
100
AcDbBlockReference
  2
_Open30
 10
671.8195708387
 20
399.8884405623
 30
85.63300858899999
 41
10.0
 42
10.0
 50
270.0
  0
LINE
  5
182
330
173
100
AcDbEntity
  8
0
  6
Continuous
 62
     7
370
     0
100
AcDbLine
 10
646.4352601279
 20
471.676717885
 30
0.0
 11
659.1274154833
 21
471.676717885
 31
0.0
  0
LINE
  5
183
330
173
100
AcDbEntity
  8
0
  6
Continuous
 62
     7
370
     0
100
AcDbLine
 10
659.1274154833
 20
471.676717885
 30
0.0
 11
659.1274154833
 21
477.4048514562999
 31
0.0
  0
LINE
  5
184
330
173
100
AcDbEntity
  8
0
  6
Continuous
 62
     7
370
     0
100
AcDbLine
 10
646.4352601279
 20
471.676717885
 30
0.0
 11
646.4352601279
 21
477.4048514562999
 31
0.0
  0
LINE
  5
185
330
173
100
AcDbEntity
  8
0
  6
Continuous
 62
     7
370
     0
100
AcDbLine
 10
646.4352601279
 20
511.1001632395999
 30
0.0
 11
659.1274154833
 21
511.1001632395999
 31
0.0
  0
LINE
  5
186
330
173
100
AcDbEntity
  8
0
  6
Continuous
 62
     7
370
     0
100
AcDbLine
 10
659.1274154833
 20
511.1001632395999
 30
0.0
 11
659.1274154833
 21
505.3720296683
 31
0.0
  0
LINE
  5
187
330
173
100
AcDbEntity
  8
0
  6
Continuous
 62
     7
370
     0
100
AcDbLine
 10
646.4352601279
 20
511.1001632395999
 30
0.0
 11
646.4352601279
 21
505.3720296683
 31
0.0
  0
LINE
  5
188
330
173
100
AcDbEntity
  8
0
  6
Continuous
 62
     7
370
     0
100
AcDbLine
 10
599.1557878293
 20
582.8884405623
 30
0.0
 11
675.8195708386999
 21
582.8884405623
 31
0.0
  0
LINE
  5
189
330
173
100
AcDbEntity
  8
0
  6
Continuous
 62
     7
370
     0
100
AcDbLine
 10
599.1557878293
 20
399.8884405623
 30
0.0
 11
675.8195708386999
 21
399.8884405623
 31
0.0
  0
LINE
  5
18A
330
173
100
AcDbEntity
  8
0
  6
Continuous
 62
     7
370
     0
100
AcDbLine
 10
671.8195708387
 20
582.8884405623
 30
0.0
 11
671.8195708387
 21
399.8884405623
 31
0.0
  0
MTEXT
  5
18B
330
173
100
AcDbEntity
  8
0
  6
Continuous
 62
     7
370
     0
100
AcDbMText
 10
660.7359343586
 20
481.8670096483
 30
0.0
 40
9.525
 41
0.0
 71
     1
 72
     1
  1
183
  7
SLDTEXTSTYLE0
 11
-0.0000000000000035
 21
1.0
 31
0.0
 73
     1
 44
1.0
1001
ACAD
1000
MTEXTBEGIN
1070
    73
1070
     1
1070
    44
1040
1.0
1070
    74
1070
     0
1000
MTEXTEND
  0
MTEXT
  5
18C
330
173
100
AcDbEntity
  8
0
  6
Continuous
 62
     7
370
     0
100
AcDbMText
 10
648.0437790032
 20
477.4048514562999
 30
0.0
 40
9.525
 41
0.0
 71
     1
 72
     1
  1
7.205
  7
SLDTEXTSTYLE0
 11
-0.0000000000000035
 21
1.0
 31
0.0
 73
     1
 44
1.0
1001
ACAD
1000
MTEXTBEGIN
1070
    73
1070
     1
1070
    44
1040
1.0
1070
    74
1070
     0
1000
MTEXTEND
  0
ENDBLK
  5
17F
330
173
100
AcDbEntity
  8
0
100
AcDbBlockEnd
  0
BLOCK
  5
199
330
18E
100
AcDbEntity
  8
0
100
AcDbBlockBegin
  2
*D10
 70
     1
 10
0.0
 20
0.0
 30
0.0
  3
*D10
  1

  0
INSERT
  5
19B
330
18E
100
AcDbEntity
  8
0
  6
Continuous
 62
     7
370
     0
100
AcDbBlockReference
  2
_Open30
 10
235.9211454682
 20
421.8884405623
 30
85.63300858899999
 41
10.0
 42
10.0
 50
270.0
  0
INSERT
  5
19C
330
18E
100
AcDbEntity
  8
0
  6
Continuous
 62
     7
370
     0
100
AcDbBlockReference
  2
_Open30
 10
235.9211454682
 20
560.8884405623
 30
85.63300858899999
 41
10.0
 42
10.0
 50
90.0
  0
LINE
  5
19D
330
18E
100
AcDbEntity
  8
0
  6
Continuous
 62
     7
370
     0
100
AcDbLine
 10
210.5368347574
 20
471.676717885
 30
0.0
 11
223.2289901128
 21
471.676717885
 31
0.0
  0
LINE
  5
19E
330
18E
100
AcDbEntity
  8
0
  6
Continuous
 62
     7
370
     0
100
AcDbLine
 10
223.2289901128
 20
471.676717885
 30
0.0
 11
223.2289901128
 21
477.4048514562999
 31
0.0
  0
LINE
  5
19F
330
18E
100
AcDbEntity
  8
0
  6
Continuous
 62
     7
370
     0
100
AcDbLine
 10
210.5368347574
 20
471.676717885
 30
0.0
 11
210.5368347574
 21
477.4048514562999
 31
0.0
  0
LINE
  5
1A0
330
18E
100
AcDbEntity
  8
0
  6
Continuous
 62
     7
370
     0
100
AcDbLine
 10
210.5368347574
 20
511.1001632395999
 30
0.0
 11
223.2289901128
 21
511.1001632395999
 31
0.0
  0
LINE
  5
1A1
330
18E
100
AcDbEntity
  8
0
  6
Continuous
 62
     7
370
     0
100
AcDbLine
 10
223.2289901128
 20
511.1001632395999
 30
0.0
 11
223.2289901128
 21
505.3720296683
 31
0.0
  0
LINE
  5
1A2
330
18E
100
AcDbEntity
  8
0
  6
Continuous
 62
     7
370
     0
100
AcDbLine
 10
210.5368347574
 20
511.1001632395999
 30
0.0
 11
210.5368347574
 21
505.3720296683
 31
0.0
  0
LINE
  5
1A3
330
18E
100
AcDbEntity
  8
0
  6
Continuous
 62
     7
370
     0
100
AcDbLine
 10
457.9834045573
 20
421.8884405623
 30
0.0
 11
231.9211454682
 21
421.8884405623
 31
0.0
  0
LINE
  5
1A4
330
18E
100
AcDbEntity
  8
0
  6
Continuous
 62
     7
370
     0
100
AcDbLine
 10
457.9834045573
 20
560.8884405623
 30
0.0
 11
231.9211454682
 21
560.8884405623
 31
0.0
  0
LINE
  5
1A5
330
18E
100
AcDbEntity
  8
0
  6
Continuous
 62
     7
370
     0
100
AcDbLine
 10
235.9211454682
 20
421.8884405623
 30
0.0
 11
235.9211454682
 21
560.8884405623
 31
0.0
  0
MTEXT
  5
1A6
330
18E
100
AcDbEntity
  8
0
  6
Continuous
 62
     7
370
     0
100
AcDbMText
 10
224.8375089882
 20
481.8670096483
 30
0.0
 40
9.525
 41
0.0
 71
     1
 72
     1
  1
139
  7
SLDTEXTSTYLE0
 11
0.0000000000000001
 21
1.0
 31
0.0
 73
     1
 44
1.0
1001
ACAD
1000
MTEXTBEGIN
1070
    73
1070
     1
1070
    44
1040
1.0
1070
    74
1070
     0
1000
MTEXTEND
  0
MTEXT
  5
1A7
330
18E
100
AcDbEntity
  8
0
  6
Continuous
 62
     7
370
     0
100
AcDbMText
 10
212.1453536328
 20
477.4048514562999
 30
0.0
 40
9.525
 41
0.0
 71
     1
 72
     1
  1
5.472
  7
SLDTEXTSTYLE0
 11
0.0000000000000001
 21
1.0
 31
0.0
 73
     1
 44
1.0
1001
ACAD
1000
MTEXTBEGIN
1070
    73
1070
     1
1070
    44
1040
1.0
1070
    74
1070
     0
1000
MTEXTEND
  0
ENDBLK
  5
19A
330
18E
100
AcDbEntity
  8
0
100
AcDbBlockEnd
  0
BLOCK
  5
1B4
330
1A9
100
AcDbEntity
  8
0
100
AcDbBlockBegin
  2
*D11
 70
     1
 10
0.0
 20
0.0
 30
0.0
  3
*D11
  1

  0
INSERT
  5
1B6
330
1A9
100
AcDbEntity
  8
0
  6
Continuous
 62
     7
370
     0
100
AcDbBlockReference
  2
_Open30
 10
268.7691265199
 20
522.8884405623
 30
85.63300858899999
 41
10.0
 42
10.0
 50
90.0
  0
INSERT
  5
1B7
330
1A9
100
AcDbEntity
  8
0
  6
Continuous
 62
     7
370
     0
100
AcDbBlockReference
  2
_Open30
 10
268.7691265199
 20
459.8884405623
 30
85.63300858899999
 41
10.0
 42
10.0
 50
270.0
  0
LINE
  5
1B8
330
1A9
100
AcDbEntity
  8
0
  6
Continuous
 62
     7
370
     0
100
AcDbLine
 10
243.3848158091
 20
471.676717885
 30
0.0
 11
256.0769711645
 21
471.676717885
 31
0.0
  0
LINE
  5
1B9
330
1A9
100
AcDbEntity
  8
0
  6
Continuous
 62
     7
370
     0
100
AcDbLine
 10
256.0769711645
 20
471.676717885
 30
0.0
 11
256.0769711645
 21
477.4048514562999
 31
0.0
  0
LINE
  5
1BA
330
1A9
100
AcDbEntity
  8
0
  6
Continuous
 62
     7
370
     0
100
AcDbLine
 10
243.3848158091
 20
471.676717885
 30
0.0
 11
243.3848158091
 21
477.4048514562999
 31
0.0
  0
LINE
  5
1BB
330
1A9
100
AcDbEntity
  8
0
  6
Continuous
 62
     7
370
     0
100
AcDbLine
 10
243.3848158091
 20
511.1001632395999
 30
0.0
 11
256.0769711645
 21
511.1001632395999
 31
0.0
  0
LINE
  5
1BC
330
1A9
100
AcDbEntity
  8
0
  6
Continuous
 62
     7
370
     0
100
AcDbLine
 10
256.0769711645
 20
511.1001632395999
 30
0.0
 11
256.0769711645
 21
505.3720296683
 31
0.0
  0
LINE
  5
1BD
330
1A9
100
AcDbEntity
  8
0
  6
Continuous
 62
     7
370
     0
100
AcDbLine
 10
243.3848158091
 20
511.1001632395999
 30
0.0
 11
243.3848158091
 21
505.3720296683
 31
0.0
  0
LINE
  5
1BE
330
1A9
100
AcDbEntity
  8
0
  6
Continuous
 62
     7
370
     0
100
AcDbLine
 10
427.6253045573
 20
522.8884405623
 30
0.0
 11
264.7691265199
 21
522.8884405623
 31
0.0
  0
LINE
  5
1BF
330
1A9
100
AcDbEntity
  8
0
  6
Continuous
 62
     7
370
     0
100
AcDbLine
 10
427.6253045573
 20
459.8884405623
 30
0.0
 11
264.7691265199
 21
459.8884405623
 31
0.0
  0
LINE
  5
1C0
330
1A9
100
AcDbEntity
  8
0
  6
Continuous
 62
     7
370
     0
100
AcDbLine
 10
268.7691265199
 20
522.8884405623
 30
0.0
 11
268.7691265199
 21
459.8884405623
 31
0.0
  0
MTEXT
  5
1C1
330
1A9
100
AcDbEntity
  8
0
  6
Continuous
 62
     7
370
     0
100
AcDbMText
 10
257.6854900399
 20
485.0423628846
 30
0.0
 40
9.525
 41
0.0
 71
     1
 72
     1
  1
63
  7
SLDTEXTSTYLE0
 11
-0.000000000000007
 21
1.0
 31
0.0
 73
     1
 44
1.0
1001
ACAD
1000
MTEXTBEGIN
1070
    73
1070
     1
1070
    44
1040
1.0
1070
    74
1070
     0
1000
MTEXTEND
  0
MTEXT
  5
1C2
330
1A9
100
AcDbEntity
  8
0
  6
Continuous
 62
     7
370
     0
100
AcDbMText
 10
244.9933346845
 20
477.4048514562999
 30
0.0
 40
9.525
 41
0.0
 71
     1
 72
     1
  1
2.480
  7
SLDTEXTSTYLE0
 11
-0.000000000000007
 21
1.0
 31
0.0
 73
     1
 44
1.0
1001
ACAD
1000
MTEXTBEGIN
1070
    73
1070
     1
1070
    44
1040
1.0
1070
    74
1070
     0
1000
MTEXTEND
  0
ENDBLK
  5
1B5
330
1A9
100
AcDbEntity
  8
0
100
AcDbBlockEnd
  0
BLOCK
  5
1D1
330
1C4
100
AcDbEntity
  8
0
100
AcDbBlockBegin
  2
*D12
 70
     1
 10
0.0
 20
0.0
 30
0.0
  3
*D12
  1

  0
INSERT
  5
1D3
330
1C4
100
AcDbEntity
  8
0
  6
Continuous
 62
     7
370
     0
100
AcDbBlockReference
  2
_Open30
 10
456.6253045573
 20
604.0188730589
 30
85.63300858899999
 41
10.0
 42
10.0
 50
360.0
  0
INSERT
  5
1D4
330
1C4
100
AcDbEntity
  8
0
  6
Continuous
 62
     7
370
     0
100
AcDbBlockReference
  2
_Open30
 10
431.6253045573
 20
604.0188730589
 30
85.63300858899999
 41
10.0
 42
10.0
 50
180.0
  0
LINE
  5
1D5
330
1C4
100
AcDbEntity
  8
0
  6
Continuous
 62
     7
370
     0
100
AcDbLine
 10
470.0472426112999
 20
629.4031837697
 30
0.0
 11
470.0472426112999
 21
616.7110284142999
 31
0.0
  0
LINE
  5
1D6
330
1C4
100
AcDbEntity
  8
0
  6
Continuous
 62
     7
370
     0
100
AcDbLine
 10
470.0472426112999
 20
616.7110284142999
 30
0.0
 11
475.7753761824999
 21
616.7110284142999
 31
0.0
  0
LINE
  5
1D7
330
1C4
100
AcDbEntity
  8
0
  6
Continuous
 62
     7
370
     0
100
AcDbLine
 10
470.0472426112999
 20
629.4031837697
 30
0.0
 11
475.7753761824999
 21
629.4031837697
 31
0.0
  0
LINE
  5
1D8
330
1C4
100
AcDbEntity
  8
0
  6
Continuous
 62
     7
370
     0
100
AcDbLine
 10
509.4706879658
 20
629.4031837697
 30
0.0
 11
509.4706879658
 21
616.7110284142999
 31
0.0
  0
LINE
  5
1D9
330
1C4
100
AcDbEntity
  8
0
  6
Continuous
 62
     7
370
     0
100
AcDbLine
 10
509.4706879658
 20
616.7110284142999
 30
0.0
 11
503.7425543944999
 21
616.7110284142999
 31
0.0
  0
LINE
  5
1DA
330
1C4
100
AcDbEntity
  8
0
  6
Continuous
 62
     7
370
     0
100
AcDbLine
 10
509.4706879658
 20
629.4031837697
 30
0.0
 11
503.7425543944999
 21
629.4031837697
 31
0.0
  0
LINE
  5
1DB
330
1C4
100
AcDbEntity
  8
0
  6
Continuous
 62
     7
370
     0
100
AcDbLine
 10
456.6253045573
 20
526.8884405623
 30
0.0
 11
456.6253045573
 21
608.0188730589
 31
0.0
  0
LINE
  5
1DC
330
1C4
100
AcDbEntity
  8
0
  6
Continuous
 62
     7
370
     0
100
AcDbLine
 10
431.6253045573
 20
526.8884405623
 30
0.0
 11
431.6253045573
 21
608.0188730589
 31
0.0
  0
LINE
  5
1DD
330
1C4
100
AcDbEntity
  8
0
  6
Continuous
 62
     7
370
     0
100
AcDbLine
 10
456.6253045573
 20
604.0188730589
 30
0.0
 11
517.7300658228999
 21
604.0188730589
 31
0.0
  0
LINE
  5
1DE
330
1C4
100
AcDbEntity
  8
0
  6
Continuous
 62
     7
370
     0
100
AcDbLine
 10
456.6253045573
 20
604.0188730589
 30
0.0
 11
431.6253045573
 21
604.0188730589
 31
0.0
  0
MTEXT
  5
1DF
330
1C4
100
AcDbEntity
  8
0
  6
Continuous
 62
     7
370
     0
100
AcDbMText
 10
483.4128876108
 20
615.1025095389
 30
0.0
 40
9.525
 41
0.0
 71
     1
 72
     1
  1
25
  7
SLDTEXTSTYLE0
 73
     1
 44
1.0
1001
ACAD
1000
MTEXTBEGIN
1070
    73
1070
     1
1070
    44
1040
1.0
1070
    74
1070
     0
1000
MTEXTEND
  0
MTEXT
  5
1E0
330
1C4
100
AcDbEntity
  8
0
  6
Continuous
 62
     7
370
     0
100
AcDbMText
 10
475.7753761824999
 20
627.7946648944
 30
0.0
 40
9.525
 41
0.0
 71
     1
 72
     1
  1
0.984
  7
SLDTEXTSTYLE0
 73
     1
 44
1.0
1001
ACAD
1000
MTEXTBEGIN
1070
    73
1070
     1
1070
    44
1040
1.0
1070
    74
1070
     0
1000
MTEXTEND
  0
ENDBLK
  5
1D2
330
1C4
100
AcDbEntity
  8
0
100
AcDbBlockEnd
  0
BLOCK
  5
1ED
330
1E2
100
AcDbEntity
  8
0
100
AcDbBlockBegin
  2
*D13
 70
     1
 10
0.0
 20
0.0
 30
0.0
  3
*D13
  1

  0
INSERT
  5
1EF
330
1E2
100
AcDbEntity
  8
0
  6
Continuous
 62
     7
370
     0
100
AcDbBlockReference
  2
_Open30
 10
637.7560183382
 20
424.8884405623
 30
85.63300858899999
 41
10.0
 42
10.0
 50
270.0
  0
INSERT
  5
1F0
330
1E2
100
AcDbEntity
  8
0
  6
Continuous
 62
     7
370
     0
100
AcDbBlockReference
  2
_Open30
 10
637.7560183382
 20
557.8884405623
 30
85.63300858899999
 41
10.0
 42
10.0
 50
90.0
  0
LINE
  5
1F1
330
1E2
100
AcDbEntity
  8
0
  6
Continuous
 62
     7
370
     0
100
AcDbLine
 10
612.3717076273999
 20
471.676717885
 30
0.0
 11
625.0638629827999
 21
471.676717885
 31
0.0
  0
LINE
  5
1F2
330
1E2
100
AcDbEntity
  8
0
  6
Continuous
 62
     7
370
     0
100
AcDbLine
 10
625.0638629827999
 20
471.676717885
 30
0.0
 11
625.0638629827999
 21
477.4048514562999
 31
0.0
  0
LINE
  5
1F3
330
1E2
100
AcDbEntity
  8
0
  6
Continuous
 62
     7
370
     0
100
AcDbLine
 10
612.3717076273999
 20
471.676717885
 30
0.0
 11
612.3717076273999
 21
477.4048514562999
 31
0.0
  0
LINE
  5
1F4
330
1E2
100
AcDbEntity
  8
0
  6
Continuous
 62
     7
370
     0
100
AcDbLine
 10
612.3717076273999
 20
511.1001632395999
 30
0.0
 11
625.0638629827999
 21
511.1001632395999
 31
0.0
  0
LINE
  5
1F5
330
1E2
100
AcDbEntity
  8
0
  6
Continuous
 62
     7
370
     0
100
AcDbLine
 10
625.0638629827999
 20
511.1001632395999
 30
0.0
 11
625.0638629827999
 21
505.3720296683
 31
0.0
  0
LINE
  5
1F6
330
1E2
100
AcDbEntity
  8
0
  6
Continuous
 62
     7
370
     0
100
AcDbLine
 10
612.3717076273999
 20
511.1001632395999
 30
0.0
 11
612.3717076273999
 21
505.3720296683
 31
0.0
  0
LINE
  5
1F7
330
1E2
100
AcDbEntity
  8
0
  6
Continuous
 62
     7
370
     0
100
AcDbLine
 10
581.4781182996999
 20
424.8884405623
 30
0.0
 11
641.7560183382
 21
424.8884405623
 31
0.0
  0
LINE
  5
1F8
330
1E2
100
AcDbEntity
  8
0
  6
Continuous
 62
     7
370
     0
100
AcDbLine
 10
581.4781182996999
 20
557.8884405623
 30
0.0
 11
641.7560183382
 21
557.8884405623
 31
0.0
  0
LINE
  5
1F9
330
1E2
100
AcDbEntity
  8
0
  6
Continuous
 62
     7
370
     0
100
AcDbLine
 10
637.7560183382
 20
424.8884405623
 30
0.0
 11
637.7560183382
 21
557.8884405623
 31
0.0
  0
MTEXT
  5
1FA
330
1E2
100
AcDbEntity
  8
0
  6
Continuous
 62
     7
370
     0
100
AcDbMText
 10
626.6723818582
 20
481.8670096483
 30
0.0
 40
9.525
 41
0.0
 71
     1
 72
     1
  1
133
  7
SLDTEXTSTYLE0
 11
0.0000000000000003
 21
1.0
 31
0.0
 73
     1
 44
1.0
1001
ACAD
1000
MTEXTBEGIN
1070
    73
1070
     1
1070
    44
1040
1.0
1070
    74
1070
     0
1000
MTEXTEND
  0
MTEXT
  5
1FB
330
1E2
100
AcDbEntity
  8
0
  6
Continuous
 62
     7
370
     0
100
AcDbMText
 10
613.9802265027999
 20
477.4048514562999
 30
0.0
 40
9.525
 41
0.0
 71
     1
 72
     1
  1
5.236
  7
SLDTEXTSTYLE0
 11
0.0000000000000003
 21
1.0
 31
0.0
 73
     1
 44
1.0
1001
ACAD
1000
MTEXTBEGIN
1070
    73
1070
     1
1070
    44
1040
1.0
1070
    74
1070
     0
1000
MTEXTEND
  0
ENDBLK
  5
1EE
330
1E2
100
AcDbEntity
  8
0
100
AcDbBlockEnd
  0
BLOCK
  5
209
330
1FD
100
AcDbEntity
  8
0
100
AcDbBlockBegin
  2
*D14
 70
     1
 10
0.0
 20
0.0
 30
0.0
  3
*D14
  1

  0
INSERT
  5
20B
330
1FD
100
AcDbEntity
  8
0
  6
Continuous
 62
     7
370
     0
100
AcDbBlockReference
  2
_Open30
 10
418.7253045573
 20
364.8773759286001
 30
85.63300858899999
 41
10.0
 42
10.0
 50
180.0
  0
INSERT
  5
20C
330
1FD
100
AcDbEntity
  8
0
  6
Continuous
 62
     7
370
     0
100
AcDbBlockReference
  2
_Open30
 10
469.5253045573
 20
364.8773759286001
 30
85.63300858899999
 41
10.0
 42
10.0
  0
LINE
  5
20D
330
1FD
100
AcDbEntity
  8
0
  6
Continuous
 62
     7
370
     0
100
AcDbLine
 10
418.7253045573
 20
410.3465405623
 30
0.0
 11
418.7253045573
 21
360.8773759286
 31
0.0
  0
LINE
  5
20E
330
1FD
100
AcDbEntity
  8
0
  6
Continuous
 62
     7
370
     0
100
AcDbLine
 10
469.5253045573
 20
410.3465405623
 30
0.0
 11
469.5253045573
 21
360.8773759286
 31
0.0
  0
LINE
  5
20F
330
1FD
100
AcDbEntity
  8
0
  6
Continuous
 62
     7
370
     0
100
AcDbLine
 10
418.7253045573
 20
364.8773759286001
 30
0.0
 11
469.5253045573
 21
364.8773759286001
 31
0.0
  0
LINE
  5
210
330
1FD
100
AcDbEntity
  8
0
  6
Continuous
 62
     7
370
     0
100
AcDbLine
 10
469.5253045573
 20
364.8773759286001
 30
0.0
 11
508.0142255271
 21
364.8773759286001
 31
0.0
  0
MTEXT
  5
211
330
1FD
100
AcDbEntity
  8
0
  6
Continuous
 62
     7
370
     0
100
AcDbMText
 10
483.4128876108
 20
375.9610124087
 30
0.0
 40
9.525
 41
0.0
 71
     1
 72
     1
  1
50
  7
SLDTEXTSTYLE0
 73
     1
 44
1.0
1001
ACAD
1000
MTEXTBEGIN
1070
    73
1070
     1
1070
    44
1040
1.0
1070
    74
1070
     0
1000
MTEXTEND
  0
MTEXT
  5
212
330
1FD
100
AcDbEntity
  8
0
  6
Continuous
 62
     7
370
     0
100
AcDbMText
 10
479.44120505
 20
388.6531677641
 30
0.0
 40
9.525
 41
0.0
 71
     1
 72
     1
  1
[2.0]
  7
SLDTEXTSTYLE0
 73
     1
 44
1.0
1001
ACAD
1000
MTEXTBEGIN
1070
    73
1070
     1
1070
    44
1040
1.0
1070
    74
1070
     0
1000
MTEXTEND
  0
ENDBLK
  5
20A
330
1FD
100
AcDbEntity
  8
0
100
AcDbBlockEnd
  0
BLOCK
  5
21E
330
214
100
AcDbEntity
  8
0
100
AcDbBlockBegin
  2
*D15
 70
     1
 10
0.0
 20
0.0
 30
0.0
  3
*D15
  1

  0
INSERT
  5
221
330
214
100
AcDbEntity
  8
WAKU
 62
     7
100
AcDbBlockReference
  2
_Open30
 10
415.6190458957
 20
564.8598273147
 30
85.63300858899999
 41
10.0
 42
10.0
 50
308.0310849054
  0
LINE
  5
222
330
214
100
AcDbEntity
  8
WAKU
 62
     7
100
AcDbLine
 10
415.6190458957
 20
564.8598273147
 30
0.0
 11
385.4274811428
 21
603.4600835571
 31
0.0
  0
LINE
  5
223
330
214
100
AcDbEntity
  8
WAKU
 62
     7
100
AcDbLine
 10
421.8315632189
 20
556.9170538098999
 30
0.0
 11
415.6190458957
 21
564.8598273147
 31
0.0
  0
LINE
  5
224
330
214
100
AcDbEntity
  8
WAKU
 62
     7
100
AcDbLine
 10
385.4274811428
 20
603.4600835571
 30
0.0
 11
329.8655477206001
 21
603.4600835571
 31
0.0
  0
MTEXT
  5
225
330
214
100
AcDbEntity
  8
WAKU
 62
     7
100
AcDbMText
 10
341.7747302815
 20
614.5437200372001
 30
0.0
 40
9.525
 41
0.0
 71
     1
 72
     1
  1
3/8"
  7
SLDTEXTSTYLE0
 73
     1
 44
1.0
1001
ACAD
1000
MTEXTBEGIN
1070
    73
1070
     1
1070
    44
1040
1.0
1070
    74
1070
     0
1000
MTEXTEND
  0
MTEXT
  5
226
330
214
100
AcDbEntity
  8
WAKU
 62
     7
100
AcDbMText
 10
337.8030477206
 20
627.2358753926
 30
0.0
 40
9.525
 41
0.0
 71
     1
 72
     1
  1
[0.397]
  7
SLDTEXTSTYLE0
 73
     1
 44
1.0
1001
ACAD
1000
MTEXTBEGIN
1070
    73
1070
     1
1070
    44
1040
1.0
1070
    74
1070
     0
1000
MTEXTEND
  0
ENDBLK
  5
21F
330
214
100
AcDbEntity
  8
0
100
AcDbBlockEnd
  0
BLOCK
  5
228
330
227
100
AcDbEntity
  8
0
100
AcDbBlockBegin
  2
SW_CENTERMARKSYMBOL_0
 70
     0
 10
0.0
 20
0.0
 30
0.0
  3
SW_CENTERMARKSYMBOL_0
  1

  0
LINE
  5
22A
330
227
100
AcDbEntity
  8
0
  6
Continuous
 62
     7
370
     0
100
AcDbLine
 10
0.0
 20
0.0
 30
0.0
 11
0.0
 21
2.5
 31
0.0
  0
LINE
  5
22B
330
227
100
AcDbEntity
  8
0
  6
Continuous
 62
     7
370
     0
100
AcDbLine
 10
0.0
 20
0.0
 30
0.0
 11
-2.5
 21
0.0
 31
0.0
  0
LINE
  5
22C
330
227
100
AcDbEntity
  8
0
  6
Continuous
 62
     7
370
     0
100
AcDbLine
 10
0.0
 20
0.0
 30
0.0
 11
0.0
 21
-2.5
 31
0.0
  0
LINE
  5
22D
330
227
100
AcDbEntity
  8
0
  6
Continuous
 62
     7
370
     0
100
AcDbLine
 10
0.0
 20
0.0
 30
0.0
 11
2.5
 21
0.0
 31
0.0
  0
LINE
  5
22E
330
227
100
AcDbEntity
  8
0
  6
Continuous
 62
     7
370
     0
100
AcDbLine
 10
0.0
 20
5.0
 30
0.0
 11
0.0
 21
7.5419
 31
0.0
  0
LINE
  5
22F
330
227
100
AcDbEntity
  8
0
  6
Continuous
 62
     7
370
     0
100
AcDbLine
 10
-5.0
 20
0.0
 30
0.0
 11
-7.5419
 21
0.0
 31
0.0
  0
LINE
  5
230
330
227
100
AcDbEntity
  8
0
  6
Continuous
 62
     7
370
     0
100
AcDbLine
 10
0.0
 20
-5.0
 30
0.0
 11
0.0
 21
-7.5419
 31
0.0
  0
LINE
  5
231
330
227
100
AcDbEntity
  8
0
  6
Continuous
 62
     7
370
     0
100
AcDbLine
 10
5.0
 20
0.0
 30
0.0
 11
7.5419
 21
0.0
 31
0.0
  0
ENDBLK
  5
229
330
227
100
AcDbEntity
  8
0
100
AcDbBlockEnd
  0
BLOCK
  5
234
330
233
100
AcDbEntity
  8
0
100
AcDbBlockBegin
  2
SW_CENTERMARKSYMBOL_1
 70
     0
 10
0.0
 20
0.0
 30
0.0
  3
SW_CENTERMARKSYMBOL_1
  1

  0
LINE
  5
236
330
233
100
AcDbEntity
  8
0
  6
Continuous
 62
     7
370
     0
100
AcDbLine
 10
0.0
 20
0.0
 30
0.0
 11
0.0
 21
2.5
 31
0.0
  0
LINE
  5
237
330
233
100
AcDbEntity
  8
0
  6
Continuous
 62
     7
370
     0
100
AcDbLine
 10
0.0
 20
0.0
 30
0.0
 11
-2.5
 21
0.0
 31
0.0
  0
LINE
  5
238
330
233
100
AcDbEntity
  8
0
  6
Continuous
 62
     7
370
     0
100
AcDbLine
 10
0.0
 20
0.0
 30
0.0
 11
0.0
 21
-2.5
 31
0.0
  0
LINE
  5
239
330
233
100
AcDbEntity
  8
0
  6
Continuous
 62
     7
370
     0
100
AcDbLine
 10
0.0
 20
0.0
 30
0.0
 11
2.5
 21
0.0
 31
0.0
  0
LINE
  5
23A
330
233
100
AcDbEntity
  8
0
  6
Continuous
 62
     7
370
     0
100
AcDbLine
 10
0.0
 20
5.0
 30
0.0
 11
0.0
 21
7.5419
 31
0.0
  0
LINE
  5
23B
330
233
100
AcDbEntity
  8
0
  6
Continuous
 62
     7
370
     0
100
AcDbLine
 10
-5.0
 20
0.0
 30
0.0
 11
-7.5419
 21
0.0
 31
0.0
  0
LINE
  5
23C
330
233
100
AcDbEntity
  8
0
  6
Continuous
 62
     7
370
     0
100
AcDbLine
 10
0.0
 20
-5.0
 30
0.0
 11
0.0
 21
-7.5419
 31
0.0
  0
LINE
  5
23D
330
233
100
AcDbEntity
  8
0
  6
Continuous
 62
     7
370
     0
100
AcDbLine
 10
5.0
 20
0.0
 30
0.0
 11
7.5419
 21
0.0
 31
0.0
  0
ENDBLK
  5
235
330
233
100
AcDbEntity
  8
0
100
AcDbBlockEnd
  0
BLOCK
  5
240
330
23F
100
AcDbEntity
  8
0
100
AcDbBlockBegin
  2
SW_CENTERMARKSYMBOL_2
 70
     0
 10
0.0
 20
0.0
 30
0.0
  3
SW_CENTERMARKSYMBOL_2
  1

  0
LINE
  5
242
330
23F
100
AcDbEntity
  8
0
  6
Continuous
 62
     7
370
     0
100
AcDbLine
 10
0.0
 20
0.0
 30
0.0
 11
0.0
 21
2.5
 31
0.0
  0
LINE
  5
243
330
23F
100
AcDbEntity
  8
0
  6
Continuous
 62
     7
370
     0
100
AcDbLine
 10
0.0
 20
0.0
 30
0.0
 11
-2.5
 21
0.0
 31
0.0
  0
LINE
  5
244
330
23F
100
AcDbEntity
  8
0
  6
Continuous
 62
     7
370
     0
100
AcDbLine
 10
0.0
 20
0.0
 30
0.0
 11
0.0
 21
-2.5
 31
0.0
  0
LINE
  5
245
330
23F
100
AcDbEntity
  8
0
  6
Continuous
 62
     7
370
     0
100
AcDbLine
 10
0.0
 20
0.0
 30
0.0
 11
2.5
 21
0.0
 31
0.0
  0
LINE
  5
246
330
23F
100
AcDbEntity
  8
0
  6
Continuous
 62
     7
370
     0
100
AcDbLine
 10
0.0
 20
5.0
 30
0.0
 11
0.0
 21
7.5419
 31
0.0
  0
LINE
  5
247
330
23F
100
AcDbEntity
  8
0
  6
Continuous
 62
     7
370
     0
100
AcDbLine
 10
-5.0
 20
0.0
 30
0.0
 11
-7.5419
 21
0.0
 31
0.0
  0
LINE
  5
248
330
23F
100
AcDbEntity
  8
0
  6
Continuous
 62
     7
370
     0
100
AcDbLine
 10
0.0
 20
-5.0
 30
0.0
 11
0.0
 21
-7.5419
 31
0.0
  0
LINE
  5
249
330
23F
100
AcDbEntity
  8
0
  6
Continuous
 62
     7
370
     0
100
AcDbLine
 10
5.0
 20
0.0
 30
0.0
 11
7.5419
 21
0.0
 31
0.0
  0
ENDBLK
  5
241
330
23F
100
AcDbEntity
  8
0
100
AcDbBlockEnd
  0
BLOCK
  5
24C
330
24B
100
AcDbEntity
  8
0
100
AcDbBlockBegin
  2
SW_CENTERMARKSYMBOL_3
 70
     0
 10
0.0
 20
0.0
 30
0.0
  3
SW_CENTERMARKSYMBOL_3
  1

  0
LINE
  5
24E
330
24B
100
AcDbEntity
  8
0
  6
Continuous
 62
     7
370
     0
100
AcDbLine
 10
0.0
 20
0.0
 30
0.0
 11
0.0
 21
2.5
 31
0.0
  0
LINE
  5
24F
330
24B
100
AcDbEntity
  8
0
  6
Continuous
 62
     7
370
     0
100
AcDbLine
 10
0.0
 20
0.0
 30
0.0
 11
-2.5
 21
0.0
 31
0.0
  0
LINE
  5
250
330
24B
100
AcDbEntity
  8
0
  6
Continuous
 62
     7
370
     0
100
AcDbLine
 10
0.0
 20
0.0
 30
0.0
 11
0.0
 21
-2.5
 31
0.0
  0
LINE
  5
251
330
24B
100
AcDbEntity
  8
0
  6
Continuous
 62
     7
370
     0
100
AcDbLine
 10
0.0
 20
0.0
 30
0.0
 11
2.5
 21
0.0
 31
0.0
  0
LINE
  5
252
330
24B
100
AcDbEntity
  8
0
  6
Continuous
 62
     7
370
     0
100
AcDbLine
 10
0.0
 20
5.0
 30
0.0
 11
0.0
 21
7.5419
 31
0.0
  0
LINE
  5
253
330
24B
100
AcDbEntity
  8
0
  6
Continuous
 62
     7
370
     0
100
AcDbLine
 10
-5.0
 20
0.0
 30
0.0
 11
-7.5419
 21
0.0
 31
0.0
  0
LINE
  5
254
330
24B
100
AcDbEntity
  8
0
  6
Continuous
 62
     7
370
     0
100
AcDbLine
 10
0.0
 20
-5.0
 30
0.0
 11
0.0
 21
-7.5419
 31
0.0
  0
LINE
  5
255
330
24B
100
AcDbEntity
  8
0
  6
Continuous
 62
     7
370
     0
100
AcDbLine
 10
5.0
 20
0.0
 30
0.0
 11
7.5419
 21
0.0
 31
0.0
  0
ENDBLK
  5
24D
330
24B
100
AcDbEntity
  8
0
100
AcDbBlockEnd
  0
BLOCK
  5
26C
330
261
100
AcDbEntity
  8
0
100
AcDbBlockBegin
  2
*D20
 70
     1
 10
0.0
 20
0.0
 30
0.0
  3
*D20
  1

  0
INSERT
  5
26F
330
261
100
AcDbEntity
  8
0
  6
Continuous
 62
     7
370
     0
100
AcDbBlockReference
  2
_Open30
 10
377.4624591085
 20
1029.6725678686
 30
-60.3809703886
 41
10.0
 42
10.0
 50
225.0
  0
INSERT
  5
270
330
261
100
AcDbEntity
  8
0
  6
Continuous
 62
     7
370
     0
100
AcDbBlockReference
  2
_Open30
 10
359.7847895788
 20
1011.9948983389
 30
-60.3809703886
 41
10.0
 42
10.0
 50
45.0
  0
LINE
  5
271
330
261
100
AcDbEntity
  8
0
  6
Continuous
 62
     7
370
     0
100
AcDbLine
 10
336.7359133303
 20
1024.8448585692
 30
0.0
 11
345.71062245
 21
1015.8701494495
 31
0.0
  0
LINE
  5
272
330
261
100
AcDbEntity
  8
0
  6
Continuous
 62
     7
370
     0
100
AcDbLine
 10
345.71062245
 20
1015.8701494495
 30
0.0
 11
349.7610245417
 21
1019.9205515412
 31
0.0
  0
LINE
  5
273
330
261
100
AcDbEntity
  8
0
  6
Continuous
 62
     7
370
     0
100
AcDbLine
 10
336.7359133303
 20
1024.8448585692
 30
0.0
 11
340.786315422
 21
1028.8952606609
 31
0.0
  0
LINE
  5
274
330
261
100
AcDbEntity
  8
0
  6
Continuous
 62
     7
370
     0
100
AcDbLine
 10
364.6124988782
 20
1052.7214441171
 30
0.0
 11
373.5872079979
 21
1043.7467349974
 31
0.0
  0
LINE
  5
275
330
261
100
AcDbEntity
  8
0
  6
Continuous
 62
     7
370
     0
100
AcDbLine
 10
373.5872079979
 20
1043.7467349974
 30
0.0
 11
369.5368059061
 21
1039.6963329056
 31
0.0
  0
LINE
  5
276
330
261
100
AcDbEntity
  8
0
  6
Continuous
 62
     7
370
     0
100
AcDbLine
 10
364.6124988782
 20
1052.7214441171
 30
0.0
 11
360.5620967864
 21
1048.6710420253
 31
0.0
  0
LINE
  5
277
330
261
100
AcDbEntity
  8
0
  6
Continuous
 62
     7
370
     0
100
AcDbLine
 10
412.7990995396999
 20
994.3359274374001
 30
0.0
 11
374.6340319837
 21
1032.5009949933
 31
0.0
  0
LINE
  5
278
330
261
100
AcDbEntity
  8
0
  6
Continuous
 62
     7
370
     0
100
AcDbLine
 10
383.1006147299
 20
988.6790731878999
 30
0.0
 11
356.9563624540001
 21
1014.8233254637
 31
0.0
  0
LINE
  5
279
330
261
100
AcDbEntity
  8
0
  6
Continuous
 62
     7
370
     0
100
AcDbLine
 10
377.4624591085
 20
1029.6725678686
 30
0.0
 11
391.6045947322
 21
1043.8147034923
 31
0.0
  0
LINE
  5
27A
330
261
100
AcDbEntity
  8
0
  6
Continuous
 62
     7
370
     0
100
AcDbLine
 10
377.4624591085
 20
1029.6725678686
 30
0.0
 11
359.7847895788
 21
1011.9948983389
 31
0.0
  0
LINE
  5
27B
330
261
100
AcDbEntity
  8
0
  6
Continuous
 62
     7
370
     0
100
AcDbLine
 10
359.7847895788
 20
1011.9948983389
 30
0.0
 11
345.6426539551
 21
997.8527627152001
 31
0.0
  0
MTEXT
  5
27C
330
261
100
AcDbEntity
  8
0
  6
Continuous
 62
     7
370
     0
100
AcDbMText
 10
356.2989552685
 20
1024.1836930592
 30
0.0
 40
9.525
 41
0.0
 71
     1
 72
     1
  1
25
  7
SLDTEXTSTYLE0
 11
0.7071067811865463
 21
0.7071067811865488
 31
0.0
 73
     1
 44
1.0
1001
ACAD
1000
MTEXTBEGIN
1070
    73
1070
     1
1070
    44
1040
1.0
1070
    74
1070
     0
1000
MTEXTEND
  0
MTEXT
  5
27D
330
261
100
AcDbEntity
  8
0
  6
Continuous
 62
     7
370
     0
100
AcDbMText
 10
341.9237100265001
 20
1027.7578660565
 30
0.0
 40
9.525
 41
0.0
 71
     1
 72
     1
  1
0.984
  7
SLDTEXTSTYLE0
 11
0.7071067811865463
 21
0.7071067811865488
 31
0.0
 73
     1
 44
1.0
1001
ACAD
1000
MTEXTBEGIN
1070
    73
1070
     1
1070
    44
1040
1.0
1070
    74
1070
     0
1000
MTEXTEND
  0
ENDBLK
  5
26D
330
261
100
AcDbEntity
  8
0
100
AcDbBlockEnd
  0
BLOCK
  5
28A
330
27F
100
AcDbEntity
  8
0
100
AcDbBlockBegin
  2
*D21
 70
     1
 10
0.0
 20
0.0
 30
0.0
  3
*D21
  1

  0
INSERT
  5
28C
330
27F
100
AcDbEntity
  8
0
  6
Continuous
 62
     7
370
     0
100
AcDbBlockReference
  2
_Open30
 10
377.4624591085
 20
1029.6725678686
 30
-60.3809703886
 41
10.0
 42
10.0
 50
225.0
  0
INSERT
  5
28D
330
27F
100
AcDbEntity
  8
0
  6
Continuous
 62
     7
370
     0
100
AcDbBlockReference
  2
_Open30
 10
471.5076610062999
 20
1123.7177697664
 30
-60.3809703886
 41
10.0
 42
10.0
 50
45.0
  0
LINE
  5
28E
330
27F
100
AcDbEntity
  8
0
  6
Continuous
 62
     7
370
     0
100
AcDbLine
 10
392.597349044
 20
1080.7062942829
 30
0.0
 11
401.5720581637
 21
1071.7315851632
 31
0.0
  0
LINE
  5
28F
330
27F
100
AcDbEntity
  8
0
  6
Continuous
 62
     7
370
     0
100
AcDbLine
 10
401.5720581637
 20
1071.7315851632
 30
0.0
 11
405.6224602554999
 21
1075.781987255
 31
0.0
  0
LINE
  5
290
330
27F
100
AcDbEntity
  8
0
  6
Continuous
 62
     7
370
     0
100
AcDbLine
 10
392.597349044
 20
1080.7062942829
 30
0.0
 11
396.6477511358
 21
1084.7566963747
 31
0.0
  0
LINE
  5
291
330
27F
100
AcDbEntity
  8
0
  6
Continuous
 62
     7
370
     0
100
AcDbLine
 10
420.4739345919
 20
1108.5828798308
 30
0.0
 11
429.4486437116
 21
1099.6081707111
 31
0.0
  0
LINE
  5
292
330
27F
100
AcDbEntity
  8
0
  6
Continuous
 62
     7
370
     0
100
AcDbLine
 10
429.4486437116
 20
1099.6081707111
 30
0.0
 11
425.3982416198999
 21
1095.5577686194
 31
0.0
  0
LINE
  5
293
330
27F
100
AcDbEntity
  8
0
  6
Continuous
 62
     7
370
     0
100
AcDbLine
 10
420.4739345919
 20
1108.5828798308
 30
0.0
 11
416.4235325001999
 21
1104.5324777391
 31
0.0
  0
LINE
  5
294
330
27F
100
AcDbEntity
  8
0
  6
Continuous
 62
     7
370
     0
100
AcDbLine
 10
412.7990995396999
 20
994.3359274374001
 30
0.0
 11
374.6340319837
 21
1032.5009949933
 31
0.0
  0
LINE
  5
295
330
27F
100
AcDbEntity
  8
0
  6
Continuous
 62
     7
370
     0
100
AcDbLine
 10
506.8443014375
 20
1088.3811293352
 30
0.0
 11
468.6792338815
 21
1126.5461968911
 31
0.0
  0
LINE
  5
296
330
27F
100
AcDbEntity
  8
0
  6
Continuous
 62
     7
370
     0
100
AcDbLine
 10
377.4624591085
 20
1029.6725678686
 30
0.0
 11
471.5076610062999
 21
1123.7177697664
 31
0.0
  0
MTEXT
  5
297
330
27F
100
AcDbEntity
  8
0
  6
Continuous
 62
     7
370
     0
100
AcDbMText
 10
409.9150771762
 20
1077.7998149669
 30
0.0
 40
9.525
 41
0.0
 71
     1
 72
     1
  1
133
  7
SLDTEXTSTYLE0
 11
0.7071067811865522
 21
0.7071067811865431
 31
0.0
 73
     1
 44
1.0
1001
ACAD
1000
MTEXTBEGIN
1070
    73
1070
     1
1070
    44
1040
1.0
1070
    74
1070
     0
1000
MTEXTEND
  0
MTEXT
  5
298
330
27F
100
AcDbEntity
  8
0
  6
Continuous
 62
     7
370
     0
100
AcDbMText
 10
397.7851457402
 20
1083.6193017702
 30
0.0
 40
9.525
 41
0.0
 71
     1
 72
     1
  1
5.236
  7
SLDTEXTSTYLE0
 11
0.7071067811865522
 21
0.7071067811865431
 31
0.0
 73
     1
 44
1.0
1001
ACAD
1000
MTEXTBEGIN
1070
    73
1070
     1
1070
    44
1040
1.0
1070
    74
1070
     0
1000
MTEXTEND
  0
ENDBLK
  5
28B
330
27F
100
AcDbEntity
  8
0
100
AcDbBlockEnd
  0
BLOCK
  5
2A6
330
29A
100
AcDbEntity
  8
0
100
AcDbBlockBegin
  2
*D22
 70
     1
 10
0.0
 20
0.0
 30
0.0
  3
*D22
  1

  0
INSERT
  5
2A8
330
29A
100
AcDbEntity
  8
0
  6
Continuous
 62
     7
370
     0
100
AcDbBlockReference
  2
_Open30
 10
344.6950222965
 20
944.6166265049999
 30
-60.3809703886
 41
10.0
 42
10.0
 50
135.0
  0
INSERT
  5
2A9
330
29A
100
AcDbEntity
  8
0
  6
Continuous
 62
     7
370
     0
100
AcDbBlockReference
  2
_Open30
 10
362.3726918261
 20
926.9389569753
 30
-60.3809703886
 41
10.0
 42
10.0
 50
315.0
  0
LINE
  5
2AA
330
29A
100
AcDbEntity
  8
0
  6
Continuous
 62
     7
370
     0
100
AcDbLine
 10
327.8421528148
 20
997.3683324654999
 30
0.0
 11
318.8674436951
 21
988.3936233457999
 31
0.0
  0
LINE
  5
2AB
330
29A
100
AcDbEntity
  8
0
  6
Continuous
 62
     7
370
     0
100
AcDbLine
 10
318.8674436951
 20
988.3936233457999
 30
0.0
 11
322.9178457868
 21
984.3432212539999
 31
0.0
  0
LINE
  5
2AC
330
29A
100
AcDbEntity
  8
0
  6
Continuous
 62
     7
370
     0
100
AcDbLine
 10
327.8421528148
 20
997.3683324654999
 30
0.0
 11
331.8925549065
 21
993.3179303736999
 31
0.0
  0
LINE
  5
2AD
330
29A
100
AcDbEntity
  8
0
  6
Continuous
 62
     7
370
     0
100
AcDbLine
 10
355.7187383627
 20
969.4917469175999
 30
0.0
 11
346.744029243
 21
960.5170377978998
 31
0.0
  0
LINE
  5
2AE
330
29A
100
AcDbEntity
  8
0
  6
Continuous
 62
     7
370
     0
100
AcDbLine
 10
346.744029243
 20
960.5170377978998
 30
0.0
 11
342.6936271511999
 21
964.5674398896002
 31
0.0
  0
LINE
  5
2AF
330
29A
100
AcDbEntity
  8
0
  6
Continuous
 62
     7
370
     0
100
AcDbLine
 10
355.7187383627
 20
969.4917469175999
 30
0.0
 11
351.6683362708999
 21
973.5421490092999
 31
0.0
  0
LINE
  5
2B0
330
29A
100
AcDbEntity
  8
0
  6
Continuous
 62
     7
370
     0
100
AcDbLine
 10
383.1006147299
 20
983.0222189384
 30
0.0
 11
341.8665951717
 21
941.7881993802
 31
0.0
  0
LINE
  5
2B1
330
29A
100
AcDbEntity
  8
0
  6
Continuous
 62
     7
370
     0
100
AcDbLine
 10
412.7990995396999
 20
977.3653646889
 30
0.0
 11
359.5442647014
 21
924.1105298505999
 31
0.0
  0
LINE
  5
2B2
330
29A
100
AcDbEntity
  8
0
  6
Continuous
 62
     7
370
     0
100
AcDbLine
 10
344.6950222965
 20
944.6166265049999
 30
0.0
 11
304.0524724842
 21
985.2591763172
 31
0.0
  0
LINE
  5
2B3
330
29A
100
AcDbEntity
  8
0
  6
Continuous
 62
     7
370
     0
100
AcDbLine
 10
344.6950222965
 20
944.6166265049999
 30
0.0
 11
362.3726918261
 21
926.9389569753
 31
0.0
  0
MTEXT
  5
2B4
330
29A
100
AcDbEntity
  8
0
  6
Continuous
 62
     7
370
     0
100
AcDbMText
 10
327.1809873047
 20
977.8052905272
 30
0.0
 40
9.525
 41
0.0
 71
     1
 72
     1
  1
25
  7
SLDTEXTSTYLE0
 11
0.7071067811865537
 21
-0.7071067811865414
 31
0.0
 73
     1
 44
1.0
1001
ACAD
1000
MTEXTBEGIN
1070
    73
1070
     1
1070
    44
1040
1.0
1070
    74
1070
     0
1000
MTEXTEND
  0
MTEXT
  5
2B5
330
29A
100
AcDbEntity
  8
0
  6
Continuous
 62
     7
370
     0
100
AcDbMText
 10
330.7551603021
 20
992.1805357692999
 30
0.0
 40
9.525
 41
0.0
 71
     1
 72
     1
  1
0.984
  7
SLDTEXTSTYLE0
 11
0.7071067811865537
 21
-0.7071067811865414
 31
0.0
 73
     1
 44
1.0
1001
ACAD
1000
MTEXTBEGIN
1070
    73
1070
     1
1070
    44
1040
1.0
1070
    74
1070
     0
1000
MTEXTEND
  0
ENDBLK
  5
2A7
330
29A
100
AcDbEntity
  8
0
100
AcDbBlockEnd
  0
BLOCK
  5
2C2
330
2B7
100
AcDbEntity
  8
0
100
AcDbBlockBegin
  2
*D23
 70
     1
 10
0.0
 20
0.0
 30
0.0
  3
*D23
  1

  0
INSERT
  5
2C4
330
2B7
100
AcDbEntity
  8
0
  6
Continuous
 62
     7
370
     0
100
AcDbBlockReference
  2
_Open30
 10
362.3726918261
 20
926.9389569753
 30
-60.3809703886
 41
10.0
 42
10.0
 50
135.0
  0
INSERT
  5
2C5
330
2B7
100
AcDbEntity
  8
0
  6
Continuous
 62
     7
370
     0
100
AcDbBlockReference
  2
_Open30
 10
424.5980885706
 20
864.7135602308999
 30
-60.3809703886
 41
10.0
 42
10.0
 50
315.0
  0
LINE
  5
2C6
330
2B7
100
AcDbEntity
  8
0
  6
Continuous
 62
     7
370
     0
100
AcDbLine
 10
397.4965156638
 20
927.7139696164999
 30
0.0
 11
388.5218065441001
 21
918.7392604968
 31
0.0
  0
LINE
  5
2C7
330
2B7
100
AcDbEntity
  8
0
  6
Continuous
 62
     7
370
     0
100
AcDbLine
 10
388.5218065441001
 20
918.7392604968
 30
0.0
 11
392.5722086358
 21
914.688858405
 31
0.0
  0
LINE
  5
2C8
330
2B7
100
AcDbEntity
  8
0
  6
Continuous
 62
     7
370
     0
100
AcDbLine
 10
397.4965156638
 20
927.7139696164999
 30
0.0
 11
401.5469177555
 21
923.6635675247001
 31
0.0
  0
LINE
  5
2C9
330
2B7
100
AcDbEntity
  8
0
  6
Continuous
 62
     7
370
     0
100
AcDbLine
 10
425.3731012116999
 20
899.8373840685001
 30
0.0
 11
416.3983920919999
 21
890.8626749489
 31
0.0
  0
LINE
  5
2CA
330
2B7
100
AcDbEntity
  8
0
  6
Continuous
 62
     7
370
     0
100
AcDbLine
 10
416.3983920919999
 20
890.8626749489
 30
0.0
 11
412.3479900001999
 21
894.9130770406
 31
0.0
  0
LINE
  5
2CB
330
2B7
100
AcDbEntity
  8
0
  6
Continuous
 62
     7
370
     0
100
AcDbLine
 10
425.3731012116999
 20
899.8373840685001
 30
0.0
 11
421.3226991198999
 21
903.8877861602999
 31
0.0
  0
LINE
  5
2CC
330
2B7
100
AcDbEntity
  8
0
  6
Continuous
 62
     7
370
     0
100
AcDbLine
 10
412.7990995396999
 20
977.3653646889
 30
0.0
 11
359.5442647014
 21
924.1105298505999
 31
0.0
  0
LINE
  5
2CD
330
2B7
100
AcDbEntity
  8
0
  6
Continuous
 62
     7
370
     0
100
AcDbLine
 10
475.0244962841001
 20
915.1399679444999
 30
0.0
 11
421.7696614458
 21
861.8851331062
 31
0.0
  0
LINE
  5
2CE
330
2B7
100
AcDbEntity
  8
0
  6
Continuous
 62
     7
370
     0
100
AcDbLine
 10
362.3726918261
 20
926.9389569753
 30
0.0
 11
424.5980885706
 21
864.7135602308999
 31
0.0
  0
MTEXT
  5
2CF
330
2B7
100
AcDbEntity
  8
0
  6
Continuous
 62
     7
370
     0
100
AcDbMText
 10
396.8353501538
 20
908.1509276782
 30
0.0
 40
9.525
 41
0.0
 71
     1
 72
     1
  1
88
  7
SLDTEXTSTYLE0
 11
0.7071067811865568
 21
-0.7071067811865383
 31
0.0
 73
     1
 44
1.0
1001
ACAD
1000
MTEXTBEGIN
1070
    73
1070
     1
1070
    44
1040
1.0
1070
    74
1070
     0
1000
MTEXTEND
  0
MTEXT
  5
2D0
330
2B7
100
AcDbEntity
  8
0
  6
Continuous
 62
     7
370
     0
100
AcDbMText
 10
400.4095231511
 20
922.5261729202999
 30
0.0
 40
9.525
 41
0.0
 71
     1
 72
     1
  1
3.465
  7
SLDTEXTSTYLE0
 11
0.7071067811865568
 21
-0.7071067811865383
 31
0.0
 73
     1
 44
1.0
1001
ACAD
1000
MTEXTBEGIN
1070
    73
1070
     1
1070
    44
1040
1.0
1070
    74
1070
     0
1000
MTEXTEND
  0
ENDBLK
  5
2C3
330
2B7
100
AcDbEntity
  8
0
100
AcDbBlockEnd
  0
BLOCK
  5
2DC
330
2D2
100
AcDbEntity
  8
0
100
AcDbBlockBegin
  2
*D24
 70
     1
 10
0.0
 20
0.0
 30
0.0
  3
*D24
  1

  0
INSERT
  5
2DF
330
2D2
100
AcDbEntity
  8
0
  6
Continuous
 62
     7
370
     0
100
AcDbBlockReference
  2
_Open30
 10
487.793457895
 20
920.1755995351
 30
-60.3809703886
 41
10.0
 42
10.0
 50
141.1554897262
  0
LINE
  5
2E0
330
2D2
100
AcDbEntity
  8
0
  6
Continuous
 62
     7
370
     0
100
AcDbLine
 10
529.1628601051
 20
924.5319094842999
 30
0.0
 11
529.1628601051
 21
911.8397541288
 31
0.0
  0
LINE
  5
2E1
330
2D2
100
AcDbEntity
  8
0
  6
Continuous
 62
     7
370
     0
100
AcDbLine
 10
529.1628601051
 20
911.8397541288
 30
0.0
 11
534.8909936763
 21
911.8397541288
 31
0.0
  0
LINE
  5
2E2
330
2D2
100
AcDbEntity
  8
0
  6
Continuous
 62
     7
370
     0
100
AcDbLine
 10
529.1628601051
 20
924.5319094842999
 30
0.0
 11
534.8909936763
 21
924.5319094842999
 31
0.0
  0
LINE
  5
2E3
330
2D2
100
AcDbEntity
  8
0
  6
Continuous
 62
     7
370
     0
100
AcDbLine
 10
568.5863054596
 20
924.5319094842999
 30
0.0
 11
568.5863054596
 21
911.8397541288
 31
0.0
  0
LINE
  5
2E4
330
2D2
100
AcDbEntity
  8
0
  6
Continuous
 62
     7
370
     0
100
AcDbLine
 10
568.5863054596
 20
911.8397541288
 30
0.0
 11
562.8581718883999
 21
911.8397541288
 31
0.0
  0
LINE
  5
2E5
330
2D2
100
AcDbEntity
  8
0
  6
Continuous
 62
     7
370
     0
100
AcDbLine
 10
568.5863054596
 20
924.5319094842999
 30
0.0
 11
562.8581718883999
 21
924.5319094842999
 31
0.0
  0
LINE
  5
2E6
330
2D2
100
AcDbEntity
  8
0
  6
Continuous
 62
     7
370
     0
100
AcDbLine
 10
487.793457895
 20
920.1755995351
 30
0.0
 11
513.9054509753
 21
899.1475987734
 31
0.0
  0
LINE
  5
2E7
330
2D2
100
AcDbEntity
  8
0
  6
Continuous
 62
     7
370
     0
100
AcDbLine
 10
479.2260974217
 20
927.0748991022999
 30
0.0
 11
487.793457895
 21
920.1755995351
 31
0.0
  0
LINE
  5
2E8
330
2D2
100
AcDbEntity
  8
0
  6
Continuous
 62
     7
370
     0
100
AcDbLine
 10
513.9054509753
 20
899.1475987734
 30
0.0
 11
576.197652044
 21
899.1475987734
 31
0.0
  0
MTEXT
  5
2E9
330
2D2
100
AcDbEntity
  8
0
  6
Continuous
 62
     7
370
     0
100
AcDbMText
 10
536.8170351946999
 20
910.2312352534999
 30
0.0
 40
9.525
 41
0.0
 71
     1
 72
     1
  1
%%c
  7
SLDTEXTSTYLE0
 73
     1
 44
1.0
1001
ACAD
1000
MTEXTBEGIN
1070
    73
1070
     1
1070
    44
1040
1.0
1070
    74
1070
     0
1000
MTEXTEND
  0
MTEXT
  5
2EA
330
2D2
100
AcDbEntity
  8
0
  6
Continuous
 62
     7
370
     0
100
AcDbMText
 10
548.2399750145999
 20
910.2312352534999
 30
0.0
 40
9.525
 41
0.0
 71
     1
 72
     1
  1
11
  7
SLDTEXTSTYLE0
 73
     1
 44
1.0
1001
ACAD
1000
MTEXTBEGIN
1070
    73
1070
     1
1070
    44
1040
1.0
1070
    74
1070
     0
1000
MTEXTEND
  0
MTEXT
  5
2EB
330
2D2
100
AcDbEntity
  8
0
  6
Continuous
 62
     7
370
     0
100
AcDbMText
 10
534.8909936763
 20
922.9233906089
 30
0.0
 40
9.525
 41
0.0
 71
     1
 72
     1
  1
0.433
  7
SLDTEXTSTYLE0
 73
     1
 44
1.0
1001
ACAD
1000
MTEXTBEGIN
1070
    73
1070
     1
1070
    44
1040
1.0
1070
    74
1070
     0
1000
MTEXTEND
  0
ENDBLK
  5
2DD
330
2D2
100
AcDbEntity
  8
0
100
AcDbBlockEnd
  0
BLOCK
  5
2ED
330
2EC
100
AcDbEntity
  8
0
100
AcDbBlockBegin
  2
SW_CENTERMARKSYMBOL_4
 70
     0
 10
0.0
 20
0.0
 30
0.0
  3
SW_CENTERMARKSYMBOL_4
  1

  0
LINE
  5
2EF
330
2EC
100
AcDbEntity
  8
0
  6
Continuous
 62
     7
370
     0
100
AcDbLine
 10
0.0
 20
0.0
 30
0.0
 11
-1.7677694559
 21
-1.7677657306
 31
0.0
  0
LINE
  5
2F0
330
2EC
100
AcDbEntity
  8
0
  6
Continuous
 62
     7
370
     0
100
AcDbLine
 10
0.0
 20
0.0
 30
0.0
 11
1.7677694559
 21
-1.7677657306
 31
0.0
  0
LINE
  5
2F1
330
2EC
100
AcDbEntity
  8
0
  6
Continuous
 62
     7
370
     0
100
AcDbLine
 10
0.0
 20
0.0
 30
0.0
 11
1.7677694559
 21
1.7677694559
 31
0.0
  0
LINE
  5
2F2
330
2EC
100
AcDbEntity
  8
0
  6
Continuous
 62
     7
370
     0
100
AcDbLine
 10
0.0
 20
0.0
 30
0.0
 11
-1.7677694559
 21
1.7677694559
 31
0.0
  0
LINE
  5
2F3
330
2EC
100
AcDbEntity
  8
0
  6
Continuous
 62
     7
370
     0
100
AcDbLine
 10
-3.5355240107
 20
-3.5355314612
 30
0.0
 11
-5.6568533182
 21
-5.6568533182
 31
0.0
  0
LINE
  5
2F4
330
2EC
100
AcDbEntity
  8
0
  6
Continuous
 62
     7
370
     0
100
AcDbLine
 10
3.5355389118
 20
-3.5355314612
 30
0.0
 11
5.6568533182
 21
-5.6568533182
 31
0.0
  0
LINE
  5
2F5
330
2EC
100
AcDbEntity
  8
0
  6
Continuous
 62
     7
370
     0
100
AcDbLine
 10
3.5355389118
 20
3.535535186499999
 30
0.0
 11
5.6568533182
 21
5.6568570435
 31
0.0
  0
LINE
  5
2F6
330
2EC
100
AcDbEntity
  8
0
  6
Continuous
 62
     7
370
     0
100
AcDbLine
 10
-3.5355240107
 20
3.535535186499999
 30
0.0
 11
-5.6568533182
 21
5.6568570435
 31
0.0
  0
ENDBLK
  5
2EE
330
2EC
100
AcDbEntity
  8
0
100
AcDbBlockEnd
  0
BLOCK
  5
2F9
330
2F8
100
AcDbEntity
  8
0
100
AcDbBlockBegin
  2
SW_CENTERMARKSYMBOL_5
 70
     0
 10
0.0
 20
0.0
 30
0.0
  3
SW_CENTERMARKSYMBOL_5
  1

  0
LINE
  5
2FB
330
2F8
100
AcDbEntity
  8
0
  6
Continuous
 62
     7
370
     0
100
AcDbLine
 10
0.0
 20
0.0
 30
0.0
 11
-1.7677694559
 21
1.7677694559
 31
0.0
  0
LINE
  5
2FC
330
2F8
100
AcDbEntity
  8
0
  6
Continuous
 62
     7
370
     0
100
AcDbLine
 10
0.0
 20
0.0
 30
0.0
 11
-1.7677694559
 21
-1.7677694559
 31
0.0
  0
LINE
  5
2FD
330
2F8
100
AcDbEntity
  8
0
  6
Continuous
 62
     7
370
     0
100
AcDbLine
 10
0.0
 20
0.0
 30
0.0
 11
1.7677657306
 21
-1.7677694559
 31
0.0
  0
LINE
  5
2FE
330
2F8
100
AcDbEntity
  8
0
  6
Continuous
 62
     7
370
     0
100
AcDbLine
 10
0.0
 20
0.0
 30
0.0
 11
1.7677657306
 21
1.7677694559
 31
0.0
  0
LINE
  5
2FF
330
2F8
100
AcDbEntity
  8
0
  6
Continuous
 62
     7
370
     0
100
AcDbLine
 10
-3.535535186499999
 20
3.5355240107
 30
0.0
 11
-5.6568570435
 21
5.6568533182
 31
0.0
  0
LINE
  5
300
330
2F8
100
AcDbEntity
  8
0
  6
Continuous
 62
     7
370
     0
100
AcDbLine
 10
-3.535535186499999
 20
-3.5355389118
 30
0.0
 11
-5.6568570435
 21
-5.6568533182
 31
0.0
  0
LINE
  5
301
330
2F8
100
AcDbEntity
  8
0
  6
Continuous
 62
     7
370
     0
100
AcDbLine
 10
3.5355314612
 20
-3.5355389118
 30
0.0
 11
5.6568533182
 21
-5.6568533182
 31
0.0
  0
LINE
  5
302
330
2F8
100
AcDbEntity
  8
0
  6
Continuous
 62
     7
370
     0
100
AcDbLine
 10
3.5355314612
 20
3.5355240107
 30
0.0
 11
5.6568533182
 21
5.6568533182
 31
0.0
  0
ENDBLK
  5
2FA
330
2F8
100
AcDbEntity
  8
0
100
AcDbBlockEnd
  0
BLOCK
  5
305
330
304
100
AcDbEntity
  8
0
100
AcDbBlockBegin
  2
SW_CENTERMARKSYMBOL_6
 70
     0
 10
0.0
 20
0.0
 30
0.0
  3
SW_CENTERMARKSYMBOL_6
  1

  0
LINE
  5
307
330
304
100
AcDbEntity
  8
0
  6
Continuous
 62
     7
370
     0
100
AcDbLine
 10
0.0
 20
0.0
 30
0.0
 11
-1.767766661899999
 21
1.7677694559
 31
0.0
  0
LINE
  5
308
330
304
100
AcDbEntity
  8
0
  6
Continuous
 62
     7
370
     0
100
AcDbLine
 10
0.0
 20
0.0
 30
0.0
 11
-1.767766661899999
 21
-1.7677620053
 31
0.0
  0
LINE
  5
309
330
304
100
AcDbEntity
  8
0
  6
Continuous
 62
     7
370
     0
100
AcDbLine
 10
0.0
 20
0.0
 30
0.0
 11
1.767766661899999
 21
-1.7677620053
 31
0.0
  0
LINE
  5
30A
330
304
100
AcDbEntity
  8
0
  6
Continuous
 62
     7
370
     0
100
AcDbLine
 10
0.0
 20
0.0
 30
0.0
 11
1.767766661899999
 21
1.7677694559
 31
0.0
  0
LINE
  5
30B
330
304
100
AcDbEntity
  8
0
  6
Continuous
 62
     7
370
     0
100
AcDbLine
 10
-3.5355337895
 20
3.5355389118
 30
0.0
 11
-5.6568542495
 21
5.6568533182
 31
0.0
  0
LINE
  5
30C
330
304
100
AcDbEntity
  8
0
  6
Continuous
 62
     7
370
     0
100
AcDbLine
 10
-3.5355337895
 20
-3.5355314612
 30
0.0
 11
-5.6568542495
 21
-5.6568533182
 31
0.0
  0
LINE
  5
30D
330
304
100
AcDbEntity
  8
0
  6
Continuous
 62
     7
370
     0
100
AcDbLine
 10
3.535534255199999
 20
-3.5355314612
 30
0.0
 11
6.9046048447
 21
-6.9046020508
 31
0.0
  0
LINE
  5
30E
330
304
100
AcDbEntity
  8
0
  6
Continuous
 62
     7
370
     0
100
AcDbLine
 10
3.535534255199999
 20
3.5355389118
 30
0.0
 11
5.6568542495
 21
5.6568533182
 31
0.0
  0
ENDBLK
  5
306
330
304
100
AcDbEntity
  8
0
100
AcDbBlockEnd
  0
BLOCK
  5
311
330
310
100
AcDbEntity
  8
0
100
AcDbBlockBegin
  2
SW_CENTERMARKSYMBOL_7
 70
     0
 10
0.0
 20
0.0
 30
0.0
  3
SW_CENTERMARKSYMBOL_7
  1

  0
LINE
  5
313
330
310
100
AcDbEntity
  8
0
  6
Continuous
 62
     7
370
     0
100
AcDbLine
 10
0.0
 20
0.0
 30
0.0
 11
-1.7677694559
 21
1.767766661899999
 31
0.0
  0
LINE
  5
314
330
310
100
AcDbEntity
  8
0
  6
Continuous
 62
     7
370
     0
100
AcDbLine
 10
0.0
 20
0.0
 30
0.0
 11
-1.7677694559
 21
-1.767766661899999
 31
0.0
  0
LINE
  5
315
330
310
100
AcDbEntity
  8
0
  6
Continuous
 62
     7
370
     0
100
AcDbLine
 10
0.0
 20
0.0
 30
0.0
 11
1.7677620053
 21
-1.767766661899999
 31
0.0
  0
LINE
  5
316
330
310
100
AcDbEntity
  8
0
  6
Continuous
 62
     7
370
     0
100
AcDbLine
 10
0.0
 20
0.0
 30
0.0
 11
1.7677620053
 21
1.767766661899999
 31
0.0
  0
LINE
  5
317
330
310
100
AcDbEntity
  8
0
  6
Continuous
 62
     7
370
     0
100
AcDbLine
 10
-3.5355389118
 20
3.5355337895
 30
0.0
 11
-5.6568533182
 21
5.6568542495
 31
0.0
  0
LINE
  5
318
330
310
100
AcDbEntity
  8
0
  6
Continuous
 62
     7
370
     0
100
AcDbLine
 10
-3.5355389118
 20
-3.535534255199999
 30
0.0
 11
-5.6568533182
 21
-5.6568542495
 31
0.0
  0
LINE
  5
319
330
310
100
AcDbEntity
  8
0
  6
Continuous
 62
     7
370
     0
100
AcDbLine
 10
3.5355314612
 20
-3.535534255199999
 30
0.0
 11
5.6568533182
 21
-5.6568542495
 31
0.0
  0
LINE
  5
31A
330
310
100
AcDbEntity
  8
0
  6
Continuous
 62
     7
370
     0
100
AcDbLine
 10
3.5355314612
 20
3.5355337895
 30
0.0
 11
5.6568533182
 21
5.6568542495
 31
0.0
  0
ENDBLK
  5
312
330
310
100
AcDbEntity
  8
0
100
AcDbBlockEnd
  0
BLOCK
  5
31D
330
31C
100
AcDbEntity
  8
0
100
AcDbBlockBegin
  2
SW_PROJECTIONARROW_0
 70
     0
 10
0.0
 20
0.0
 30
0.0
  3
SW_PROJECTIONARROW_0
  1

  0
LINE
  5
31F
330
31C
100
AcDbEntity
  8
0
  6
HIDDEN
 62
     7
370
     0
100
AcDbLine
 10
376.4627944345
 20
917.5275827127
 30
0.0
 11
342.5216689375
 21
883.5864572157001
 31
0.0
  0
LINE
  5
320
330
31C
100
AcDbEntity
  8
0
  6
HIDDEN
 62
     7
370
     0
100
AcDbLine
 10
376.4627944345
 20
917.5275827127
 30
0.0
 11
342.5216689375
 21
883.5864572157001
 31
0.0
  0
LINE
  5
321
330
31C
100
AcDbEntity
  8
0
  6
PHANTOM
 62
     7
370
    30
100
AcDbLine
 10
376.4627944345
 20
917.5275827127
 30
0.0
 11
342.5216689375
 21
883.5864572157001
 31
0.0
  0
INSERT
  5
322
330
31C
100
AcDbEntity
  8
0
  6
Continuous
 62
     7
370
    15
100
AcDbBlockReference
  2
_Open30
 10
342.5216689375
 20
883.5864572157001
 30
0.0
 41
24.0
 42
24.0
 50
225.0
  0
INSERT
  5
323
330
31C
100
AcDbEntity
  8
0
  6
Continuous
 62
     7
370
    15
100
AcDbBlockReference
  2
_Open30
 10
342.5216689375
 20
883.5864572157001
 30
0.0
 41
24.0
 42
24.0
 50
225.0
  0
MTEXT
  5
325
330
31C
100
AcDbEntity
  8
0
  6
Continuous
 62
     7
370
    15
100
AcDbMText
 10
350.2805535874
 20
926.0596071536999
 30
0.0
 40
14.0
 41
0.0
 71
     1
 72
     1
  1
:
  7
SLDTEXTSTYLE2
 73
     1
 44
1.0
1001
ACAD
1000
MTEXTBEGIN
1070
    73
1070
     1
1070
    44
1040
1.0
1070
    74
1070
     0
1000
MTEXTEND
  0
MTEXT
  5
326
330
31C
100
AcDbEntity
  8
0
  6
Continuous
 62
     7
370
    15
100
AcDbMText
 10
350.2805535874
 20
926.0596071536999
 30
0.0
 40
14.0
 41
0.0
 71
     1
 72
     1
  1
:
  7
SLDTEXTSTYLE2
 73
     1
 44
1.0
1001
ACAD
1000
MTEXTBEGIN
1070
    73
1070
     1
1070
    44
1040
1.0
1070
    74
1070
     0
1000
MTEXTEND
  0
ENDBLK
  5
31E
330
31C
100
AcDbEntity
  8
0
100
AcDbBlockEnd
  0
ENDSEC
  0
SECTION
  2
ENTITIES
  0
LINE
  5
31
330
1F
100
AcDbEntity
  8
WAKU
370
    15
100
AcDbLine
 10
82.8970623742
 20
1147.3531589537
 30
0.0
 11
802.8970623741999
 21
1147.3531589537
 31
0.0
  0
LINE
  5
32
330
1F
100
AcDbEntity
  8
WAKU
370
    15
100
AcDbLine
 10
82.8970623742
 20
1147.3531589537
 30
0.0
 11
82.8970623742
 21
35.3531589537
 31
0.0
  0
LINE
  5
33
330
1F
100
AcDbEntity
  8
WAKU
370
    15
100
AcDbLine
 10
802.8970623741999
 20
1147.3531589537
 30
0.0
 11
802.8970623741999
 21
35.3531589537
 31
0.0
  0
LINE
  5
34
330
1F
100
AcDbEntity
  8
WAKU
370
    15
100
AcDbLine
 10
82.8970623742
 20
35.3531589537
 30
0.0
 11
802.8970623741999
 21
35.3531589537
 31
0.0
  0
LINE
  5
35
330
1F
100
AcDbEntity
  8
WAKU
100
AcDbLine
 10
394.8970623742
 20
179.3531589537
 30
0.0
 11
522.8970623741999
 21
179.3531589537
 31
0.0
  0
LINE
  5
36
330
1F
100
AcDbEntity
  8
WAKU
370
    15
100
AcDbLine
 10
82.8970623742
 20
203.3531589537
 30
0.0
 11
802.8970623741999
 21
203.3531589537
 31
0.0
  0
LINE
  5
37
330
1F
100
AcDbEntity
  8
WAKU
 62
     7
370
    15
100
AcDbLine
 10
82.8970623742
 20
169.7531589537
 30
0.0
 11
394.8970623742
 21
169.7531589537
 31
0.0
  0
LINE
  5
38
330
1F
100
AcDbEntity
  8
WAKU
 62
     7
370
    15
100
AcDbLine
 10
82.8970623742
 20
136.1531589537
 30
0.0
 11
394.8970623742
 21
136.1531589537
 31
0.0
  0
LINE
  5
39
330
1F
100
AcDbEntity
  8
WAKU
 62
     7
370
    15
100
AcDbLine
 10
82.8970623742
 20
102.5531589537
 30
0.0
 11
394.8970623742
 21
102.5531589537
 31
0.0
  0
LINE
  5
3A
330
1F
100
AcDbEntity
  8
WAKU
 62
     7
370
    15
100
AcDbLine
 10
82.8970623742
 20
68.9531589537
 30
0.0
 11
394.8970623742
 21
68.9531589537
 31
0.0
  0
LINE
  5
3B
330
1F
100
AcDbEntity
  8
WAKU
100
AcDbLine
 10
394.8970623742
 20
96.95315895370001
 30
0.0
 11
586.8970623742
 21
96.95315895370001
 31
0.0
  0
LINE
  5
3C
330
1F
100
AcDbEntity
  8
WAKU
370
    15
100
AcDbLine
 10
394.8970623742
 20
203.3531589537
 30
0.0
 11
394.8970623742
 21
35.3531589537
 31
0.0
  0
LINE
  5
3D
330
1F
100
AcDbEntity
  8
WAKU
370
    15
100
AcDbLine
 10
458.8970623742
 20
203.3531589537
 30
0.0
 11
458.8970623742
 21
35.3531589537
 31
0.0
  0
LINE
  5
3E
330
1F
100
AcDbEntity
  8
WAKU
370
    15
100
AcDbLine
 10
522.8970623741999
 20
203.3531589537
 30
0.0
 11
522.8970623741999
 21
35.3531589537
 31
0.0
  0
LINE
  5
3F
330
1F
100
AcDbEntity
  8
WAKU
370
    15
100
AcDbLine
 10
586.8970623742
 20
120.9531589537
 30
0.0
 11
586.8970623742
 21
35.3531589537
 31
0.0
  0
LINE
  5
40
330
1F
100
AcDbEntity
  8
WAKU
370
    15
100
AcDbLine
 10
394.8970623742
 20
120.9531589537
 30
0.0
 11
802.8970623741999
 21
120.9531589537
 31
0.0
  0
LINE
  5
41
330
1F
100
AcDbEntity
  8
WAKU
370
    15
100
AcDbLine
 10
115.0843368377
 20
203.3531589537
 30
0.0
 11
115.0843368377
 21
35.3531589537
 31
0.0
  0
LINE
  5
42
330
1F
100
AcDbEntity
  8
WAKU
370
    15
100
AcDbLine
 10
185.9755838747
 20
203.3531589537
 30
0.0
 11
185.9755838747
 21
35.3531589537
 31
0.0
  0
LINE
  5
43
330
1F
100
AcDbEntity
  8
WAKU
370
    15
100
AcDbLine
 10
344.258626828
 20
203.3531589537
 30
0.0
 11
344.258626828
 21
35.3531589537
 31
0.0
  0
MTEXT
  5
45
330
1F
100
AcDbEntity
  8
WAKU
100
AcDbMText
 10
661.1952474588999
 20
89.455142342
 30
0.0
 40
19.05
 41
0.0
 71
     1
 72
     1
  1
A-CM3
  7
SLDTEXTSTYLE0
 73
     1
 44
1.0
1001
ACAD
1000
MTEXTBEGIN
1070
    73
1070
     1
1070
    44
1040
1.0
1070
    74
1070
     0
1000
MTEXTEND
  0
MTEXT
  5
47
330
1F
100
AcDbEntity
  8
WAKU
100
AcDbMText
 10
712.7648533699999
 20
1134.6423580575
 30
0.0
 40
10.5833333333
 41
0.0
 71
     1
 72
     1
  1
Unit:
  7
SLDTEXTSTYLE1
 73
     1
 44
1.0
1001
ACAD
1000
MTEXTBEGIN
1070
    73
1070
     1
1070
    44
1040
1.0
1070
    74
1070
     0
1000
MTEXTEND
  0
MTEXT
  5
48
330
1F
100
AcDbEntity
  8
WAKU
100
AcDbMText
 10
753.4160763295
 20
1140.5700283898
 30
0.0
 40
10.5833333333
 41
0.0
 71
     1
 72
     1
  1
[ inch ]
  7
SLDTEXTSTYLE1
 73
     1
 44
1.0
1001
ACAD
1000
MTEXTBEGIN
1070
    73
1070
     1
1070
    44
1040
1.0
1070
    74
1070
     0
1000
MTEXTEND
  0
MTEXT
  5
49
330
1F
100
AcDbEntity
  8
WAKU
100
AcDbMText
 10
764.1406887939999
 20
1126.8241817782
 30
0.0
 40
10.5833333333
 41
0.0
 71
     1
 72
     1
  1
mm
  7
SLDTEXTSTYLE1
 73
     1
 44
1.0
1001
ACAD
1000
MTEXTBEGIN
1070
    73
1070
     1
1070
    44
1040
1.0
1070
    74
1070
     0
1000
MTEXTEND
  0
LINE
  5
4A
330
1F
100
AcDbEntity
  8
0
  6
CENTERX2
 62
     7
370
     0
100
AcDbLine
 10
444.1253045573
 20
871.0727668944
 30
0.0
 11
444.1253045573
 21
716.8618586344
 31
0.0
  0
LINE
  5
4B
330
1F
100
AcDbEntity
  8
0
  6
CENTERX2
 62
     7
370
     0
100
AcDbLine
 10
565.2782309973
 20
887.5386432664999
 30
0.0
 11
586.3334046872999
 21
866.4834695764
 31
0.0
  0
LINE
  5
4C
330
1F
100
AcDbEntity
  8
0
  6
CENTERX2
 62
     7
370
     0
100
AcDbLine
 10
505.3262246794
 20
823.0398560955
 30
0.0
 11
523.404469931
 21
804.9616108439
 31
0.0
  0
LINE
  5
4D
330
1F
100
AcDbEntity
  8
0
  6
CENTERX2
 62
     7
370
     0
100
AcDbLine
 10
306.5065017452
 20
871.0727668944
 30
0.0
 11
317.0396930361
 21
881.6059581853
 31
0.0
  0
LINE
  5
4E
330
1F
100
AcDbEntity
  8
0
  6
CENTERX2
 62
     7
370
     0
100
AcDbLine
 10
368.7318984897
 20
808.8473701499999
 30
0.0
 11
379.2650897805
 21
819.3805614408999
 31
0.0
  0
LINE
  5
4F
330
1F
100
AcDbEntity
  8
0
  6
CENTERX2
 62
     7
370
     0
100
AcDbLine
 10
418.7253045573
 20
748.7315143348999
 30
0.0
 11
418.7253045573
 21
716.8618586344
 31
0.0
  0
LINE
  5
50
330
1F
100
AcDbEntity
  8
0
  6
CENTERX2
 62
     7
370
     0
100
AcDbLine
 10
469.5253045573
 20
748.7315143348999
 30
0.0
 11
469.5253045573
 21
716.8618586344
 31
0.0
  0
LINE
  5
51
330
1F
100
AcDbEntity
  8
0
  6
Continuous
 62
     7
370
    15
100
AcDbLine
 10
477.525303699
 20
730.4859421099
 30
0.0
 11
477.5253045573
 21
738.4859422216999
 31
0.0
  0
LINE
  5
52
330
1F
100
AcDbEntity
  8
0
  6
Continuous
 62
     7
370
    15
100
AcDbLine
 10
461.5253045573
 20
738.4859422216999
 30
0.0
 11
461.5253048017
 21
730.4859421099
 31
0.0
  0
LINE
  5
53
330
1F
100
AcDbEntity
  8
0
  6
Continuous
 62
     7
370
    15
100
AcDbLine
 10
426.7253043129
 20
730.4859421099
 30
0.0
 11
426.7253045573
 21
738.4859422216999
 31
0.0
  0
LINE
  5
54
330
1F
100
AcDbEntity
  8
0
  6
Continuous
 62
     7
370
    15
100
AcDbLine
 10
410.7253045573
 20
738.4859422216999
 30
0.0
 11
410.7253054155999
 21
730.4859421099
 31
0.0
  0
ARC
  5
55
330
1F
100
AcDbEntity
  8
0
  6
Continuous
 62
     7
370
    15
100
AcDbCircle
 10
493.6253045573
 20
790.0717286592999
 30
0.0
 40
1.000000000000088
100
AcDbArc
 50
135.0
 51
180.0
  0
ARC
  5
56
330
1F
100
AcDbEntity
  8
0
  6
Continuous
 62
     7
370
    15
100
AcDbCircle
 10
486.6253045572999
 20
731.4859422216999
 30
0.0
 40
6.0
100
AcDbArc
 50
270.0
 51
0.0
  0
ARC
  5
57
330
1F
100
AcDbEntity
  8
0
  6
Continuous
 62
     7
370
    15
100
AcDbCircle
 10
401.6253045573
 20
731.4859422216999
 30
0.0
 40
6.0
100
AcDbArc
 50
180.0
 51
270.0
  0
ARC
  5
58
330
1F
100
AcDbEntity
  8
0
  6
Continuous
 62
     7
370
    15
100
AcDbCircle
 10
394.6253045573
 20
790.0717286592999
 30
0.0
 40
1.000000000000088
100
AcDbArc
 50
0.0
 51
45.0
  0
ARC
  5
59
330
1F
100
AcDbEntity
  8
0
  6
Continuous
 62
     7
370
    15
100
AcDbCircle
 10
394.6253045573
 20
790.0717286592999
 30
0.0
 40
6.000000000000089
100
AcDbArc
 50
0.0
 51
45.0
  0
ARC
  5
5A
330
1F
100
AcDbEntity
  8
0
  6
Continuous
 62
     7
370
    15
100
AcDbCircle
 10
401.6253045573
 20
731.4859422216999
 30
0.0
 40
1.0
100
AcDbArc
 50
180.0
 51
270.0
  0
ARC
  5
5B
330
1F
100
AcDbEntity
  8
0
  6
Continuous
 62
     7
370
    15
100
AcDbCircle
 10
486.6253045572999
 20
731.4859422216999
 30
0.0
 40
1.000000000000057
100
AcDbArc
 50
270.0
 51
0.0
  0
ARC
  5
5C
330
1F
100
AcDbEntity
  8
0
  6
Continuous
 62
     7
370
    15
100
AcDbCircle
 10
493.6253045573
 20
790.0717286592999
 30
0.0
 40
6.000000000000048
100
AcDbArc
 50
135.0
 51
180.0
  0
LINE
  5
5D
330
1F
100
AcDbEntity
  8
0
  6
Continuous
 62
     7
370
    15
100
AcDbLine
 10
492.6253045573
 20
731.4859422216999
 30
0.0
 11
492.6253045573
 21
790.0717286592999
 31
0.0
  0
LINE
  5
5E
330
1F
100
AcDbEntity
  8
0
  6
Continuous
 62
     7
370
    15
100
AcDbLine
 10
401.6253045573
 20
725.4859422216999
 30
0.0
 11
486.6253045572999
 21
725.4859422216999
 31
0.0
  0
LINE
  5
5F
330
1F
100
AcDbEntity
  8
0
  6
Continuous
 62
     7
370
    15
100
AcDbLine
 10
395.6253045573
 20
790.0717286592999
 30
0.0
 11
395.6253045573
 21
731.4859422216999
 31
0.0
  0
LINE
  5
60
330
1F
100
AcDbEntity
  8
0
  6
Continuous
 62
     7
370
    15
100
AcDbLine
 10
293.0948236956
 20
893.0164192687
 30
0.0
 11
395.3324113385
 21
790.7788354405
 31
0.0
  0
LINE
  5
61
330
1F
100
AcDbEntity
  8
0
  6
Continuous
 62
     7
370
    15
100
AcDbLine
 10
293.0948236956
 20
893.0164192687
 30
0.0
 11
296.6303626074
 21
896.5519581805001
 31
0.0
  0
LINE
  5
62
330
1F
100
AcDbEntity
  8
0
  6
Continuous
 62
     7
370
    15
100
AcDbLine
 10
296.6303626074
 20
896.5519581805001
 30
0.0
 11
398.8679452444
 21
794.3143693464
 31
0.0
  0
LINE
  5
63
330
1F
100
AcDbEntity
  8
0
  6
Continuous
 62
     7
370
    15
100
AcDbLine
 10
400.6253045573
 20
790.0717286592999
 30
0.0
 11
400.6253045573
 21
731.4859422216999
 31
0.0
  0
LINE
  5
64
330
1F
100
AcDbEntity
  8
0
  6
Continuous
 62
     7
370
    15
100
AcDbLine
 10
487.6253045573
 20
731.4859422216999
 30
0.0
 11
487.6253045573
 21
790.0717286592999
 31
0.0
  0
LINE
  5
65
330
1F
100
AcDbEntity
  8
0
  6
Continuous
 62
     7
370
    15
100
AcDbLine
 10
591.6202465070999
 20
896.5519581805001
 30
0.0
 11
595.1557854188999
 21
893.0164192687
 31
0.0
  0
LINE
  5
66
330
1F
100
AcDbEntity
  8
0
  6
Continuous
 62
     7
370
    15
100
AcDbLine
 10
489.3826638701999
 20
794.3143693464
 30
0.0
 11
591.6202465070999
 21
896.5519581805001
 31
0.0
  0
LINE
  5
67
330
1F
100
AcDbEntity
  8
0
  6
Continuous
 62
     7
370
    15
100
AcDbLine
 10
492.9181977760999
 20
790.7788354405
 30
0.0
 11
595.1557854188999
 21
893.0164192687
 31
0.0
  0
LINE
  5
68
330
1F
100
AcDbEntity
  8
0
  6
Continuous
 62
     7
370
    15
100
AcDbLine
 10
401.6253045573
 20
730.4859422216999
 30
0.0
 11
486.6253045572999
 21
730.4859422216999
 31
0.0
  0
LINE
  5
69
330
1F
100
AcDbEntity
  8
0
  6
Continuous
 62
     7
370
    15
100
AcDbLine
 10
461.5253045573
 20
738.4859422216999
 30
0.0
 11
477.5253045573
 21
738.4859422216999
 31
0.0
  0
LINE
  5
6A
330
1F
100
AcDbEntity
  8
0
  6
Continuous
 62
     7
370
    15
100
AcDbLine
 10
410.7253045573
 20
738.4859422216999
 30
0.0
 11
426.7253045573
 21
738.4859422216999
 31
0.0
  0
LINE
  5
6B
330
1F
100
AcDbEntity
  8
0
  6
HIDDEN
 62
     7
370
     0
100
AcDbLine
 10
456.6253047435
 20
730.4859421099
 30
0.0
 11
456.6253047435
 21
725.4859422216999
 31
0.0
  0
LINE
  5
6C
330
1F
100
AcDbEntity
  8
0
  6
HIDDEN
 62
     7
370
     0
100
AcDbLine
 10
431.6253043709999
 20
730.4859421099
 30
0.0
 11
431.6253043709999
 21
725.4859422216999
 31
0.0
  0
LINE
  5
6D
330
1F
100
AcDbEntity
  8
0
  6
HIDDEN
 62
     7
370
     0
100
AcDbLine
 10
423.7672040238
 20
725.4859422216999
 30
0.0
 11
423.7672040238
 21
738.4859424899
 31
0.0
  0
LINE
  5
6E
330
1F
100
AcDbEntity
  8
0
  6
HIDDEN
 62
     7
370
     0
100
AcDbLine
 10
413.6834038419999
 20
738.4859424899
 30
0.0
 11
413.6834038419999
 21
725.4859422216999
 31
0.0
  0
LINE
  5
6F
330
1F
100
AcDbEntity
  8
0
  6
HIDDEN
 62
     7
370
     0
100
AcDbLine
 10
474.5672052725
 20
725.4859422216999
 30
0.0
 11
474.5672052725
 21
738.4859424899
 31
0.0
  0
LINE
  5
70
330
1F
100
AcDbEntity
  8
0
  6
HIDDEN
 62
     7
370
     0
100
AcDbLine
 10
464.4834050908
 20
738.4859424899
 30
0.0
 11
464.4834050908
 21
725.4859422216999
 31
0.0
  0
LINE
  5
71
330
1F
100
AcDbEntity
  8
0
  6
HIDDEN
 62
     7
370
     0
100
AcDbLine
 10
581.3672045244999
 20
879.2278383741999
 30
0.0
 11
577.8316656127
 21
882.763377286
 31
0.0
  0
LINE
  5
72
330
1F
100
AcDbEntity
  8
0
  6
HIDDEN
 62
     7
370
     0
100
AcDbLine
 10
570.053497888
 20
874.9852095614
 30
0.0
 11
573.5890367998999
 21
871.4496706496001
 31
0.0
  0
LINE
  5
73
330
1F
100
AcDbEntity
  8
0
  6
HIDDEN
 62
     7
370
     0
100
AcDbLine
 10
314.6615723147001
 20
871.4496706496001
 30
0.0
 11
318.1971112265
 21
874.9852095614
 31
0.0
  0
LINE
  5
74
330
1F
100
AcDbEntity
  8
0
  6
HIDDEN
 62
     7
370
     0
100
AcDbLine
 10
310.4189435019
 20
882.763377286
 30
0.0
 11
306.8834045901
 21
879.2278383741999
 31
0.0
  0
LINE
  5
75
330
1F
100
AcDbEntity
  8
0
  6
HIDDEN
 62
     7
370
     0
100
AcDbLine
 10
376.8869737162
 20
809.2242692480999
 30
0.0
 11
380.4225051775
 21
812.7598081599
 31
0.0
  0
LINE
  5
76
330
1F
100
AcDbEntity
  8
0
  6
HIDDEN
 62
     7
370
     0
100
AcDbLine
 10
372.6443374527999
 20
820.5379833350999
 30
0.0
 11
369.108798541
 21
817.0024444233
 31
0.0
  0
LINE
  5
77
330
1F
100
AcDbEntity
  8
0
  6
HIDDEN
 62
     7
370
     0
100
AcDbLine
 10
519.1418105735
 20
817.0024444233
 30
0.0
 11
515.6062716616999
 21
820.5379833350999
 31
0.0
  0
LINE
  5
78
330
1F
100
AcDbEntity
  8
0
  6
HIDDEN
 62
     7
370
     0
100
AcDbLine
 10
507.8281039370999
 20
812.7598081599
 30
0.0
 11
511.3636353982999
 21
809.2242692480999
 31
0.0
  0
DIMENSION
  5
79
330
1F
100
AcDbEntity
  8
0
  6
Continuous
 62
     7
370
     0
100
AcDbDimension
  2
*D1
 10
530.9375571887999
 20
725.4859422216999
 30
0.0
 11
530.9375571887999
 21
757.9859422216999
 31
0.0
 70
   160
 42
65.0
  3
SLDDIMSTYLE0
100
AcDbAlignedDimension
 13
492.6253045573
 23
790.4859422216999
 33
0.0
 14
486.6253045572999
 24
725.4859422216999
 34
0.0
 50
90.0
100
AcDbRotatedDimension
1001
ACAD
1000
DSTYLE
1002
{
1070
    77
1070
     3
1070
   143
1040
0.0393700787
1070
    41
1040
10.0
1070
    44
1040
4.0
1070
    42
1040
4.0
1070
   147
1040
6.096
1070
    73
1070
     0
1070
    74
1070
     0
1070
   140
1040
12.7
1070
   284
1070
    12
1070
    78
1070
    12
1002
}
  0
DIMENSION
  5
9C
330
1F
100
AcDbEntity
  8
0
  6
Continuous
 62
     7
370
     0
100
AcDbDimension
  2
*D3
 10
264.0242918968
 20
863.9458961053
 30
0.0
 11
315.2895335328
 21
812.6806544693
 31
0.0
 70
   160
 42
145.0
  3
SLDDIMSTYLE0
100
AcDbAlignedDimension
 13
395.6253045573
 23
790.4859422216999
 33
0.0
 14
293.0948212852
 24
893.0164254936999
 34
0.0
 50
-45.0
100
AcDbRotatedDimension
1001
ACAD
1000
DSTYLE
1002
{
1070
    77
1070
     3
1070
   143
1040
0.0393700787
1070
    41
1040
10.0
1070
    44
1040
4.0
1070
    42
1040
4.0
1070
   147
1040
6.096
1070
    73
1070
     0
1070
    74
1070
     0
1070
   140
1040
12.7
1070
   284
1070
    12
1070
    78
1070
    12
1002
}
  0
DIMENSION
  5
B7
330
1F
100
AcDbEntity
  8
0
  6
Continuous
 62
     7
370
     0
100
AcDbDimension
  2
*D4
 10
492.6253045573
 20
687.8698589634
 30
0.0
 11
444.1253045573
 21
687.8698589634
 31
0.0
 70
   160
 42
97.0
  3
SLDDIMSTYLE0
100
AcDbAlignedDimension
 13
395.6253045573
 23
731.4859422216999
 33
0.0
 14
492.6253045573
 24
731.4859422216999
 34
0.0
100
AcDbRotatedDimension
1001
ACAD
1000
DSTYLE
1002
{
1070
    77
1070
     3
1070
   143
1040
0.0393700787
1070
    41
1040
10.0
1070
    44
1040
4.0
1070
    42
1040
4.0
1070
   147
1040
6.096
1070
    73
1070
     0
1070
    74
1070
     0
1070
   140
1040
12.7
1070
   284
1070
    12
1070
    78
1070
    12
1002
}
  0
DIMENSION
  5
D1
330
1F
100
AcDbEntity
  8
0
  6
Continuous
 62
     7
370
     0
100
AcDbDimension
  2
*D5
 10
400.6253045573
 20
731.4859422216999
 30
0.0
 11
378.0764609022
 21
846.9947342014998
 31
0.0
 70
   162
 42
0.7853981634000001
  3
SLDDIMSTYLE1
100
AcDb2LineAngularDimension
 13
398.8679452444
 23
794.3143693464
 33
0.0
 14
296.6303551912
 24
896.5519593996999
 34
0.0
 15
400.6253045573
 25
790.0717286592999
 35
0.0
 16
389.130003748
 26
850.3477897658999
 36
0.0
1001
ACAD
1000
DSTYLE
1002
{
1070
    77
1070
     3
1070
   143
1040
0.0393700787
1070
    41
1040
10.0
1070
    44
1040
4.0
1070
    42
1040
4.0
1070
   147
1040
6.096
1070
    73
1070
     0
1070
    74
1070
     0
1070
   140
1040
12.7
1070
   284
1070
    12
1070
    78
1070
    12
1002
}
  0
DIMENSION
  5
E6
330
1F
100
AcDbEntity
  8
0
  6
Continuous
 62
     7
370
     0
100
AcDbDimension
  2
*D6
 10
637.4316651174999
 20
896.5519593996999
 30
0.0
 11
637.4316651174999
 21
811.0189508107
 31
0.0
 70
   160
 42
171.066017178
  3
SLDDIMSTYLE2
100
AcDbAlignedDimension
 13
486.6253045572999
 23
725.4859422216999
 33
0.0
 14
591.6202539233999
 24
896.5519593996999
 34
0.0
 50
90.0
100
AcDbRotatedDimension
1001
ACAD
1000
DSTYLE
1002
{
1070
    77
1070
     3
1070
   143
1040
0.0393700787
1070
    41
1040
10.0
1070
    44
1040
4.0
1070
    42
1040
4.0
1070
   147
1040
6.096
1070
    73
1070
     0
1070
    74
1070
     0
1070
   140
1040
12.7
1070
   284
1070
    12
1070
    78
1070
    12
1002
}
  0
DIMENSION
  5
102
330
1F
100
AcDbEntity
  8
0
  6
Continuous
 62
     7
370
     0
100
AcDbDimension
  2
*D7
 10
275.3961712668
 20
917.7861433241
 30
0.0
 11
273.6284043138
 21
916.0183763711
 31
0.0
 70
   160
 42
5.0
  3
SLDDIMSTYLE0
100
AcDbAlignedDimension
 13
293.0948212852
 23
893.0164254936999
 33
0.0
 14
296.6303551912
 24
896.5519593996999
 34
0.0
 50
45.0
100
AcDbRotatedDimension
1001
ACAD
1000
DSTYLE
1002
{
1070
    77
1070
     3
1070
   143
1040
0.0393700787
1070
    41
1040
10.0
1070
    44
1040
4.0
1070
    42
1040
4.0
1070
   147
1040
6.096
1070
    73
1070
     0
1070
    74
1070
     0
1070
   140
1040
12.7
1070
   284
1070
    12
1070
    78
1070
    12
1002
}
  0
DIMENSION
  5
122
330
1F
100
AcDbEntity
  8
0
  6
Continuous
 62
     7
370
     0
100
AcDbDimension
  2
*D8
 10
293.0948212852
 20
653.4039278799999
 30
0.0
 11
444.1253045573
 21
653.4039278799999
 31
0.0
 70
   160
 42
302.0609665441
  3
SLDDIMSTYLE2
100
AcDbAlignedDimension
 13
595.1557878293
 23
893.0164254936999
 33
0.0
 14
293.0948212852
 24
893.0164254936999
 34
0.0
100
AcDbRotatedDimension
1001
ACAD
1000
DSTYLE
1002
{
1070
    77
1070
     3
1070
   143
1040
0.0393700787
1070
    41
1040
10.0
1070
    44
1040
4.0
1070
    42
1040
4.0
1070
   147
1040
6.096
1070
    73
1070
     0
1070
    74
1070
     0
1070
   140
1040
12.7
1070
   284
1070
    12
1070
    78
1070
    12
1002
}
  0
LINE
  5
13C
330
1F
100
AcDbEntity
  8
WAKU
  6
HIDDEN
 62
     7
370
     0
100
AcDbLine
 10
487.6253045573
 20
399.8884405623
 30
0.0
 11
487.6253045573
 21
582.8884405623
 31
0.0
  0
LINE
  5
13D
330
1F
100
AcDbEntity
  8
WAKU
  6
HIDDEN
 62
     7
370
     0
100
AcDbLine
 10
400.6253045573
 20
582.8884405623
 30
0.0
 11
400.6253045573
 21
399.8884405623
 31
0.0
  0
LINE
  5
13E
330
1F
100
AcDbEntity
  8
0
  6
CENTERX2
 62
     7
370
     0
100
AcDbLine
 10
444.1253045573
 20
598.0500524047999
 30
0.0
 11
444.1253045573
 21
376.4082085026
 31
0.0
  0
LINE
  5
13F
330
1F
100
AcDbEntity
  8
0
  6
CENTERX2
 62
     7
370
     0
100
AcDbLine
 10
270.5648739271
 20
491.3884405623
 30
0.0
 11
606.6924893410999
 21
491.3884405623
 31
0.0
  0
CIRCLE
  5
140
330
1F
100
AcDbEntity
  8
WAKU
  6
HIDDEN
 62
     7
370
     0
100
AcDbCircle
 10
418.7253045573
 20
560.8884405623
 30
0.0
 40
8.304908051206652
  0
CIRCLE
  5
141
330
1F
100
AcDbEntity
  8
WAKU
  6
HIDDEN
 62
     7
370
     0
100
AcDbCircle
 10
469.5253045573
 20
560.8884405623
 30
0.0
 40
8.304908051206652
  0
CIRCLE
  5
142
330
1F
100
AcDbEntity
  8
WAKU
  6
HIDDEN
 62
     7
370
     0
100
AcDbCircle
 10
418.7253045573
 20
421.8884405623
 30
0.0
 40
8.304908051206652
  0
CIRCLE
  5
143
330
1F
100
AcDbEntity
  8
WAKU
  6
HIDDEN
 62
     7
370
     0
100
AcDbCircle
 10
469.5253045573
 20
421.8884405623
 30
0.0
 40
8.304908051206652
  0
LINE
  5
144
330
1F
100
AcDbEntity
  8
0
  6
Continuous
 62
     7
370
    15
100
AcDbLine
 10
401.6253045573
 20
582.8884405623
 30
0.0
 11
486.6253045572999
 21
582.8884405623
 31
0.0
  0
LINE
  5
145
330
1F
100
AcDbEntity
  8
0
  6
Continuous
 62
     7
370
    15
100
AcDbLine
 10
401.6253045573
 20
399.8884405623
 30
0.0
 11
486.6253045572999
 21
399.8884405623
 31
0.0
  0
LINE
  5
146
330
1F
100
AcDbEntity
  8
0
  6
Continuous
 62
     7
370
    15
100
AcDbLine
 10
456.6253047435
 20
459.8884400556999
 30
0.0
 11
456.6253047435
 21
522.888441069
 31
0.0
  0
LINE
  5
147
330
1F
100
AcDbEntity
  8
0
  6
Continuous
 62
     7
370
    15
100
AcDbLine
 10
456.6253047435
 20
522.888441069
 30
0.0
 11
431.6253043709999
 21
522.888441069
 31
0.0
  0
LINE
  5
148
330
1F
100
AcDbEntity
  8
0
  6
Continuous
 62
     7
370
    15
100
AcDbLine
 10
431.6253043709999
 20
522.888441069
 30
0.0
 11
431.6253043709999
 21
459.8884400556999
 31
0.0
  0
LINE
  5
149
330
1F
100
AcDbEntity
  8
0
  6
Continuous
 62
     7
370
    15
100
AcDbLine
 10
431.6253043709999
 20
459.8884400556999
 30
0.0
 11
456.6253047435
 21
459.8884400556999
 31
0.0
  0
CIRCLE
  5
14A
330
1F
100
AcDbEntity
  8
0
  6
Continuous
 62
     7
370
    15
100
AcDbCircle
 10
418.7253045573
 20
421.8884405623
 30
0.0
 40
5.041899999999941
  0
CIRCLE
  5
14B
330
1F
100
AcDbEntity
  8
0
  6
Continuous
 62
     7
370
    15
100
AcDbCircle
 10
469.5253045573
 20
421.8884405623
 30
0.0
 40
5.041899999999941
  0
CIRCLE
  5
14C
330
1F
100
AcDbEntity
  8
0
  6
Continuous
 62
     7
370
    15
100
AcDbCircle
 10
469.5253045573
 20
560.8884405623
 30
0.0
 40
5.041899999999941
  0
CIRCLE
  5
14D
330
1F
100
AcDbEntity
  8
0
  6
Continuous
 62
     7
370
    15
100
AcDbCircle
 10
418.7253045573
 20
560.8884405623
 30
0.0
 40
5.041899999999941
  0
LINE
  5
14E
330
1F
100
AcDbEntity
  8
0
  6
Continuous
 62
     7
370
    15
100
AcDbLine
 10
395.6253045573
 20
399.8884405623
 30
0.0
 11
395.6253045573
 21
582.8884405623
 31
0.0
  0
LINE
  5
14F
330
1F
100
AcDbEntity
  8
0
  6
Continuous
 62
     7
370
    15
100
AcDbLine
 10
395.6253045573
 20
582.8884405623
 30
0.0
 11
401.6253045573
 21
582.8884405623
 31
0.0
  0
LINE
  5
150
330
1F
100
AcDbEntity
  8
0
  6
Continuous
 62
     7
370
    15
100
AcDbLine
 10
401.6253045573
 20
399.8884405623
 30
0.0
 11
395.6253045573
 21
399.8884405623
 31
0.0
  0
LINE
  5
151
330
1F
100
AcDbEntity
  8
0
  6
Continuous
 62
     7
370
    15
100
AcDbLine
 10
492.6253045573
 20
582.8884405623
 30
0.0
 11
492.6253045573
 21
399.8884405623
 31
0.0
  0
LINE
  5
152
330
1F
100
AcDbEntity
  8
0
  6
Continuous
 62
     7
370
    15
100
AcDbLine
 10
486.6253045572999
 20
582.8884405623
 30
0.0
 11
492.6253045573
 21
582.8884405623
 31
0.0
  0
LINE
  5
153
330
1F
100
AcDbEntity
  8
0
  6
Continuous
 62
     7
370
    15
100
AcDbLine
 10
492.6253045573
 20
399.8884405623
 30
0.0
 11
486.6253045572999
 21
399.8884405623
 31
0.0
  0
LINE
  5
154
330
1F
100
AcDbEntity
  8
0
  6
Continuous
 62
     7
370
    15
100
AcDbLine
 10
395.3324113385
 20
582.8884405623
 30
0.0
 11
395.6253045573
 21
582.8884405623
 31
0.0
  0
LINE
  5
155
330
1F
100
AcDbEntity
  8
0
  6
Continuous
 62
     7
370
    15
100
AcDbLine
 10
395.6253045573
 20
399.8884405623
 30
0.0
 11
395.3324113385
 21
399.8884405623
 31
0.0
  0
LINE
  5
156
330
1F
100
AcDbEntity
  8
0
  6
Continuous
 62
     7
370
    15
100
AcDbLine
 10
492.6253045573
 20
582.8884405623
 30
0.0
 11
492.9181977760999
 21
582.8884405623
 31
0.0
  0
LINE
  5
157
330
1F
100
AcDbEntity
  8
0
  6
Continuous
 62
     7
370
    15
100
AcDbLine
 10
492.9181977760999
 20
399.8884405623
 30
0.0
 11
492.6253045573
 21
399.8884405623
 31
0.0
  0
LINE
  5
158
330
1F
100
AcDbEntity
  8
0
  6
Continuous
 62
     7
370
    15
100
AcDbLine
 10
293.0948236956
 20
582.8884397278
 30
0.0
 11
293.0948236956
 21
399.8884413968
 31
0.0
  0
LWPOLYLINE
  5
159
330
1F
100
AcDbEntity
  8
0
  6
Continuous
 62
     7
370
    15
100
AcDbPolyline
 90
       25
 70
   128
 43
0.0
 10
314.6615723147001
 20
557.888441218
 10
314.5290562882
 20
559.3119416962
 10
314.1405383124
 20
560.6384430657
 10
313.5224977507
 20
561.7775250802999
 10
312.7170303835
 20
562.6515824923999
 10
311.779061891
 20
563.2010330091
 10
310.7724884524
 20
563.3884374628999
 10
309.7659150137
 20
563.2010330091
 10
308.8279465212
 20
562.6515824923999
 10
308.0224940552
 20
561.7775250802999
 10
307.4044385924
 20
560.6384430657
 10
307.0159206166
 20
559.3119416962
 10
306.8834045901
 20
557.888441218
 10
307.0159206166
 20
556.4649332891
 10
307.4044385924
 20
555.1384393702
 10
308.0224940552
 20
553.9993499051
 10
308.8279465212
 20
553.1252999434999
 10
309.7659150137
 20
552.5758494268
 10
310.7724884524
 20
552.3884412477999
 10
311.779061891
 20
552.5758494268
 10
312.7170303835
 20
553.1252999434999
 10
313.5224977507
 20
553.9993499051
 10
314.1405383124
 20
555.1384393702
 10
314.5290562882
 20
556.4649332891
 10
314.6615723147001
 20
557.888441218
  0
LWPOLYLINE
  5
15A
330
1F
100
AcDbEntity
  8
0
  6
Continuous
 62
     7
370
    15
100
AcDbPolyline
 90
       25
 70
   128
 43
0.0
 10
314.6615723147001
 20
424.8884399067
 10
314.5290562882
 20
426.3119478354999
 10
314.1405383124
 20
427.6384417544
 10
313.5224977507
 20
428.7775312194999
 10
312.7170303835
 20
429.6515811811
 10
311.779061891
 20
430.2010316977999
 10
310.7724884524
 20
430.3884398769
 10
309.7659150137
 20
430.2010316977999
 10
308.8279465212
 20
429.6515811811
 10
308.0224940552
 20
428.7775312194999
 10
307.4044385924
 20
427.6384417544
 10
307.0159206166
 20
426.3119478354999
 10
306.8834045901
 20
424.8884399067
 10
307.0159206166
 20
423.4649394284
 10
307.4044385924
 20
422.1384380588999
 10
308.0224940552
 20
420.9993560444
 10
308.8279465212
 20
420.1252986322
 10
309.7659150137
 20
419.5758481155
 10
310.7724884524
 20
419.3884436618
 10
311.779061891
 20
419.5758481155
 10
312.7170303835
 20
420.1252986322
 10
313.5224977507
 20
420.9993560444
 10
314.1405383124
 20
422.1384380588999
 10
314.5290562882
 20
423.4649394284
 10
314.6615723147001
 20
424.8884399067
  0
LWPOLYLINE
  5
15B
330
1F
100
AcDbEntity
  8
0
  6
Continuous
 62
     7
370
    15
100
AcDbPolyline
 90
       25
 70
   128
 43
0.0
 10
376.8869737162
 20
424.8884399067
 10
376.7544576897
 20
426.3119478354999
 10
376.3659322633
 20
427.6384417544
 10
375.7478842511
 20
428.7775312194999
 10
374.9424317851
 20
429.6515811811
 10
374.004455842
 20
430.2010316977999
 10
372.9978898539
 20
430.3884398769
 10
371.9913164153
 20
430.2010316977999
 10
371.0533404722
 20
429.6515811811
 10
370.2478880062
 20
428.7775312194999
 10
369.6298399939
 20
427.6384417544
 10
369.2413145675
 20
426.3119478354999
 10
369.108798541
 20
424.8884399067
 10
369.2413145675
 20
423.4649394284
 10
369.6298399939
 20
422.1384380588999
 10
370.2478880062
 20
420.9993560444
 10
371.0533404722
 20
420.1252986322
 10
371.9913164153
 20
419.5758481155
 10
372.9978898539
 20
419.3884436618
 10
374.004455842
 20
419.5758481155
 10
374.9424317851
 20
420.1252986322
 10
375.7478842511
 20
420.9993560444
 10
376.3659322633
 20
422.1384380588999
 10
376.7544576897
 20
423.4649394284
 10
376.8869737162
 20
424.8884399067
  0
LWPOLYLINE
  5
15C
330
1F
100
AcDbEntity
  8
0
  6
Continuous
 62
     7
370
    15
100
AcDbPolyline
 90
       25
 70
   128
 43
0.0
 10
376.8869737162
 20
557.888441218
 10
376.7544576897
 20
559.3119416962
 10
376.3659322633
 20
560.6384430657
 10
375.7478842511
 20
561.7775250802999
 10
374.9424317851
 20
562.6515824923999
 10
374.004455842
 20
563.2010330091
 10
372.9978898539
 20
563.3884374628999
 10
371.9913164153
 20
563.2010330091
 10
371.0533404722
 20
562.6515824923999
 10
370.2478880062
 20
561.7775250802999
 10
369.6298399939
 20
560.6384430657
 10
369.2413145675
 20
559.3119416962
 10
369.108798541
 20
557.888441218
 10
369.2413145675
 20
556.4649332891
 10
369.6298399939
 20
555.1384393702
 10
370.2478880062
 20
553.9993499051
 10
371.0533404722
 20
553.1252999434999
 10
371.9913164153
 20
552.5758494268
 10
372.9978898539
 20
552.3884412477999
 10
374.004455842
 20
552.5758494268
 10
374.9424317851
 20
553.1252999434999
 10
375.7478842511
 20
553.9993499051
 10
376.3659322633
 20
555.1384393702
 10
376.7544576897
 20
556.4649332891
 10
376.8869737162
 20
557.888441218
  0
LINE
  5
15D
330
1F
100
AcDbEntity
  8
0
  6
Continuous
 62
     7
370
    15
100
AcDbLine
 10
293.0948236956
 20
582.8884397278
 30
0.0
 11
395.3324113385
 21
582.8884405623
 31
0.0
  0
LINE
  5
15E
330
1F
100
AcDbEntity
  8
0
  6
Continuous
 62
     7
370
    15
100
AcDbLine
 10
293.0948236956
 20
399.8884413968
 30
0.0
 11
395.3324113385
 21
399.8884405623
 31
0.0
  0
LWPOLYLINE
  5
15F
330
1F
100
AcDbEntity
  8
0
  6
Continuous
 62
     7
370
    15
100
AcDbPolyline
 90
       25
 70
   128
 43
0.0
 10
511.3636353982999
 20
557.888441218
 10
511.4961514248
 20
559.3119416962
 10
511.8846768512
 20
560.6384430657
 10
512.5027248634999
 20
561.7775250802999
 10
513.3081773294999
 20
562.6515824923999
 10
514.2461532726001
 20
563.2010330091
 10
515.2527192607
 20
563.3884374628999
 10
516.2592926992999
 20
563.2010330091
 10
517.1972686423999
 20
562.6515824923999
 10
518.0027211083999
 20
561.7775250802999
 10
518.6207691206999
 20
560.6384430657
 10
519.0092945469999
 20
559.3119416962
 10
519.1418105735
 20
557.888441218
 10
519.0092945469999
 20
556.4649332891
 10
518.6207691206999
 20
555.1384393702
 10
518.0027211083999
 20
553.9993499051
 10
517.1972686423999
 20
553.1252999434999
 10
516.2592926992999
 20
552.5758494268
 10
515.2527192607
 20
552.3884412477999
 10
514.2461532726001
 20
552.5758494268
 10
513.3081773294999
 20
553.1252999434999
 10
512.5027248634999
 20
553.9993499051
 10
511.8846768512
 20
555.1384393702
 10
511.4961514248
 20
556.4649332891
 10
511.3636353982999
 20
557.888441218
  0
LWPOLYLINE
  5
160
330
1F
100
AcDbEntity
  8
0
  6
Continuous
 62
     7
370
    15
100
AcDbPolyline
 90
       25
 70
   128
 43
0.0
 10
573.5890367998999
 20
424.8884399067
 10
573.7215528263999
 20
426.3119478354999
 10
574.1100708021999
 20
427.6384417544
 10
574.7281113637999
 20
428.7775312194999
 10
575.533578731
 20
429.6515811811
 10
576.4715472235
 20
430.2010316977999
 10
577.4781206622
 20
430.3884398769
 10
578.4846941007999
 20
430.2010316977999
 10
579.4226625933
 20
429.6515811811
 10
580.2281150593
 20
428.7775312194999
 10
580.8461705222
 20
427.6384417544
 10
581.2346884980001
 20
426.3119478354999
 10
581.3672045244999
 20
424.8884399067
 10
581.2346884980001
 20
423.4649394284
 10
580.8461705222
 20
422.1384380588999
 10
580.2281150593
 20
420.9993560444
 10
579.4226625933
 20
420.1252986322
 10
578.4846941007999
 20
419.5758481155
 10
577.4781206622
 20
419.3884436618
 10
576.4715472235
 20
419.5758481155
 10
575.533578731
 20
420.1252986322
 10
574.7281113637999
 20
420.9993560444
 10
574.1100708021999
 20
422.1384380588999
 10
573.7215528263999
 20
423.4649394284
 10
573.5890367998999
 20
424.8884399067
  0
LINE
  5
161
330
1F
100
AcDbEntity
  8
0
  6
Continuous
 62
     7
370
    15
100
AcDbLine
 10
595.1557854188999
 20
582.8884397278
 30
0.0
 11
595.1557854188999
 21
399.8884413968
 31
0.0
  0
LWPOLYLINE
  5
162
330
1F
100
AcDbEntity
  8
0
  6
Continuous
 62
     7
370
    15
100
AcDbPolyline
 90
       25
 70
   128
 43
0.0
 10
573.5890367998999
 20
557.888441218
 10
573.7215528263999
 20
559.3119416962
 10
574.1100708021999
 20
560.6384430657
 10
574.7281113637999
 20
561.7775250802999
 10
575.533578731
 20
562.6515824923999
 10
576.4715472235
 20
563.2010330091
 10
577.4781206622
 20
563.3884374628999
 10
578.4846941007999
 20
563.2010330091
 10
579.4226625933
 20
562.6515824923999
 10
580.2281150593
 20
561.7775250802999
 10
580.8461705222
 20
560.6384430657
 10
581.2346884980001
 20
559.3119416962
 10
581.3672045244999
 20
557.888441218
 10
581.2346884980001
 20
556.4649332891
 10
580.8461705222
 20
555.1384393702
 10
580.2281150593
 20
553.9993499051
 10
579.4226625933
 20
553.1252999434999
 10
578.4846941007999
 20
552.5758494268
 10
577.4781206622
 20
552.3884412477999
 10
576.4715472235
 20
552.5758494268
 10
575.533578731
 20
553.1252999434999
 10
574.7281113637999
 20
553.9993499051
 10
574.1100708021999
 20
555.1384393702
 10
573.7215528263999
 20
556.4649332891
 10
573.5890367998999
 20
557.888441218
  0
LWPOLYLINE
  5
163
330
1F
100
AcDbEntity
  8
0
  6
Continuous
 62
     7
370
    15
100
AcDbPolyline
 90
       25
 70
   128
 43
0.0
 10
511.3636353982999
 20
424.8884399067
 10
511.4961514248
 20
426.3119478354999
 10
511.8846768512
 20
427.6384417544
 10
512.5027248634999
 20
428.7775312194999
 10
513.3081773294999
 20
429.6515811811
 10
514.2461532726001
 20
430.2010316977999
 10
515.2527192607
 20
430.3884398769
 10
516.2592926992999
 20
430.2010316977999
 10
517.1972686423999
 20
429.6515811811
 10
518.0027211083999
 20
428.7775312194999
 10
518.6207691206999
 20
427.6384417544
 10
519.0092945469999
 20
426.3119478354999
 10
519.1418105735
 20
424.8884399067
 10
519.0092945469999
 20
423.4649394284
 10
518.6207691206999
 20
422.1384380588999
 10
518.0027211083999
 20
420.9993560444
 10
517.1972686423999
 20
420.1252986322
 10
516.2592926992999
 20
419.5758481155
 10
515.2527192607
 20
419.3884436618
 10
514.2461532726001
 20
419.5758481155
 10
513.3081773294999
 20
420.1252986322
 10
512.5027248634999
 20
420.9993560444
 10
511.8846768512
 20
422.1384380588999
 10
511.4961514248
 20
423.4649394284
 10
511.3636353982999
 20
424.8884399067
  0
LINE
  5
164
330
1F
100
AcDbEntity
  8
0
  6
Continuous
 62
     7
370
    15
100
AcDbLine
 10
492.9181977760999
 20
582.8884405623
 30
0.0
 11
595.1557854188999
 21
582.8884397278
 31
0.0
  0
LINE
  5
165
330
1F
100
AcDbEntity
  8
0
  6
Continuous
 62
     7
370
    15
100
AcDbLine
 10
492.9181977760999
 20
399.8884405623
 30
0.0
 11
595.1557854188999
 21
399.8884413968
 31
0.0
  0
ARC
  5
166
330
1F
100
AcDbEntity
  8
0
  6
Continuous
 62
     7
370
    15
100
AcDbCircle
 10
378.4431886808999
 20
425.2862379064
 30
0.0
 40
5.812479575335042
100
AcDbArc
 50
129.2493638269
 51
183.9243108328
  0
ARC
  5
167
330
1F
100
AcDbEntity
  8
0
  6
Continuous
 62
     7
370
    15
100
AcDbCircle
 10
378.5778998438
 20
424.5489733791
 30
0.0
 40
5.943265110269695
100
AcDbArc
 50
176.7256061636
 51
230.1007191767
  0
LWPOLYLINE
  5
168
330
1F
100
AcDbEntity
  8
0
  6
Continuous
 62
     7
370
    15
100
AcDbPolyline
 90
       11
 70
   128
 43
0.0
 10
513.4849572552999
 20
419.9894596467999
 10
513.6617297305999
 20
420.1252986322
 10
514.4671896472
 20
420.9993560444
 10
515.0852376594
 20
422.1384380588999
 10
515.4737556351999
 20
423.4649394284
 10
515.6062716616999
 20
424.8884399067
 10
515.4737556351999
 20
426.3119478354999
 10
515.0852376594
 20
427.6384417544
 10
514.4671896472
 20
428.7775312194999
 10
513.6617297305999
 20
429.6515811811
 10
513.4849572552999
 20
429.7874201666
  0
ARC
  5
169
330
1F
100
AcDbEntity
  8
0
  6
Continuous
 62
     7
370
    15
100
AcDbCircle
 10
378.4432110801999
 20
558.2862295185999
 30
0.0
 40
5.812501258357082
100
AcDbArc
 50
129.2494743218
 51
183.924200338
  0
ARC
  5
16A
330
1F
100
AcDbEntity
  8
0
  6
Continuous
 62
     7
370
    15
100
AcDbCircle
 10
378.5778931429
 20
557.5489717887998
 30
0.0
 40
5.943258586008856
100
AcDbArc
 50
176.7255745469
 51
230.1007507934
  0
LWPOLYLINE
  5
16B
330
1F
100
AcDbEntity
  8
0
  6
Continuous
 62
     7
370
    15
100
AcDbPolyline
 90
       11
 70
   128
 43
0.0
 10
513.4849572552999
 20
552.9894609580999
 10
513.6617297305999
 20
553.1252999434999
 10
514.4671896472
 20
553.9993499051
 10
515.0852376594
 20
555.1384393702
 10
515.4737556351999
 20
556.4649332891
 10
515.6062716616999
 20
557.888441218
 10
515.4737556351999
 20
559.3119416962
 10
515.0852376594
 20
560.6384430657
 10
514.4671896472
 20
561.7775250802999
 10
513.6617297305999
 20
562.6515824923999
 10
513.4849572552999
 20
562.7874214779
  0
LWPOLYLINE
  5
16C
330
1F
100
AcDbEntity
  8
0
  6
Continuous
 62
     7
370
    15
100
AcDbPolyline
 90
       11
 70
   128
 43
0.0
 10
575.7103512062999
 20
419.9894596467999
 10
575.8871236815
 20
420.1252986322
 10
576.6925910487
 20
420.9993560444
 10
577.3106316104
 20
422.1384380588999
 10
577.6991495862001
 20
423.4649394284
 10
577.8316656127
 20
424.8884399067
 10
577.6991495862001
 20
426.3119478354999
 10
577.3106316104
 20
427.6384417544
 10
576.6925910487
 20
428.7775312194999
 10
575.8871236815
 20
429.6515811811
 10
575.7103512062999
 20
429.7874201666
  0
ARC
  5
16D
330
1F
100
AcDbEntity
  8
0
  6
Continuous
 62
     7
370
    15
100
AcDbCircle
 10
316.2177739856
 20
425.286246889
 30
0.0
 40
5.812459494385897
100
AcDbArc
 50
129.2492614953
 51
183.9244131645
  0
ARC
  5
16E
330
1F
100
AcDbEntity
  8
0
  6
Continuous
 62
     7
370
    15
100
AcDbCircle
 10
316.3525058929
 20
424.5489733791
 30
0.0
 40
5.943265110269588
100
AcDbArc
 50
176.7256061636
 51
230.1007191767
  0
ARC
  5
16F
330
1F
100
AcDbEntity
  8
0
  6
Continuous
 62
     7
370
    15
100
AcDbCircle
 10
316.2177963846
 20
558.2862385012
 30
0.0
 40
5.812481177061201
100
AcDbArc
 50
129.2493719892
 51
183.9243026705
  0
ARC
  5
170
330
1F
100
AcDbEntity
  8
0
  6
Continuous
 62
     7
370
    15
100
AcDbCircle
 10
316.3524991919
 20
557.5489717887998
 30
0.0
 40
5.94325858600875
100
AcDbArc
 50
176.7255745469
 51
230.1007507934
  0
LWPOLYLINE
  5
171
330
1F
100
AcDbEntity
  8
0
  6
Continuous
 62
     7
370
    15
100
AcDbPolyline
 90
       11
 70
   128
 43
0.0
 10
575.7103512062999
 20
552.9894609580999
 10
575.8871236815
 20
553.1252999434999
 10
576.6925910487
 20
553.9993499051
 10
577.3106316104
 20
555.1384393702
 10
577.6991495862001
 20
556.4649332891
 10
577.8316656127
 20
557.888441218
 10
577.6991495862001
 20
559.3119416962
 10
577.3106316104
 20
560.6384430657
 10
576.6925910487
 20
561.7775250802999
 10
575.8871236815
 20
562.6515824923999
 10
575.7103512062999
 20
562.7874214779
  0
DIMENSION
  5
172
330
1F
100
AcDbEntity
  8
0
  6
Continuous
 62
     7
370
     0
100
AcDbDimension
  2
*D9
 10
671.8195708387
 20
399.8884405623
 30
0.0
 11
671.8195708387
 21
491.3884405623
 31
0.0
 70
   160
 42
183.0
  3
SLDDIMSTYLE0
100
AcDbAlignedDimension
 13
595.1557878293
 23
582.8884405623
 33
0.0
 14
595.1557878293
 24
399.8884405623
 34
0.0
 50
90.0
100
AcDbRotatedDimension
1001
ACAD
1000
DSTYLE
1002
{
1070
    77
1070
     3
1070
   143
1040
0.0393700787
1070
    41
1040
10.0
1070
    44
1040
4.0
1070
    42
1040
4.0
1070
   147
1040
6.096
1070
    73
1070
     0
1070
    74
1070
     0
1070
   140
1040
12.7
1070
   284
1070
    12
1070
    78
1070
    12
1002
}
  0
DIMENSION
  5
18D
330
1F
100
AcDbEntity
  8
0
  6
Continuous
 62
     7
370
     0
100
AcDbDimension
  2
*D10
 10
235.9211454682
 20
560.8884405623
 30
0.0
 11
235.9211454682
 21
491.3884405623
 31
0.0
 70
   160
 42
139.0
  3
SLDDIMSTYLE0
100
AcDbAlignedDimension
 13
461.9834045573
 23
421.8884405623
 33
0.0
 14
461.9834045573
 24
560.8884405623
 34
0.0
 50
90.0
100
AcDbRotatedDimension
1001
ACAD
1000
DSTYLE
1002
{
1070
    77
1070
     3
1070
   143
1040
0.0393700787
1070
    41
1040
10.0
1070
    44
1040
4.0
1070
    42
1040
4.0
1070
   147
1040
6.096
1070
    73
1070
     0
1070
    74
1070
     0
1070
   140
1040
12.7
1070
   284
1070
    12
1070
    78
1070
    12
1002
}
  0
DIMENSION
  5
1A8
330
1F
100
AcDbEntity
  8
0
  6
Continuous
 62
     7
370
     0
100
AcDbDimension
  2
*D11
 10
268.7691265199
 20
459.8884405623
 30
0.0
 11
268.7691265199
 21
491.3884405623
 31
0.0
 70
   160
 42
63.0
  3
SLDDIMSTYLE0
100
AcDbAlignedDimension
 13
431.6253045573
 23
522.8884405623
 33
0.0
 14
431.6253045573
 24
459.8884405623
 34
0.0
 50
90.0
100
AcDbRotatedDimension
1001
ACAD
1000
DSTYLE
1002
{
1070
    77
1070
     3
1070
   143
1040
0.0393700787
1070
    41
1040
10.0
1070
    44
1040
4.0
1070
    42
1040
4.0
1070
   147
1040
6.096
1070
    73
1070
     0
1070
    74
1070
     0
1070
   140
1040
12.7
1070
   284
1070
    12
1070
    78
1070
    12
1002
}
  0
DIMENSION
  5
1C3
330
1F
100
AcDbEntity
  8
0
  6
Continuous
 62
     7
370
     0
100
AcDbDimension
  2
*D12
 10
431.6253045573
 20
604.0188730589
 30
0.0
 11
489.7589652885
 21
604.0188730589
 31
0.0
 70
   160
 42
25.0
  3
SLDDIMSTYLE0
100
AcDbAlignedDimension
 13
456.6253045573
 23
522.8884405623
 33
0.0
 14
431.6253045573
 24
522.8884405623
 34
0.0
100
AcDbRotatedDimension
1001
ACAD
1000
DSTYLE
1002
{
1070
    77
1070
     3
1070
   143
1040
0.0393700787
1070
    41
1040
10.0
1070
    44
1040
4.0
1070
    42
1040
4.0
1070
   147
1040
6.096
1070
    73
1070
     0
1070
    74
1070
     0
1070
   140
1040
12.7
1070
   284
1070
    12
1070
    78
1070
    12
1002
}
  0
DIMENSION
  5
1E1
330
1F
100
AcDbEntity
  8
0
  6
Continuous
 62
     7
370
     0
100
AcDbDimension
  2
*D13
 10
637.7560183382
 20
557.8884405623
 30
0.0
 11
637.7560183382
 21
491.3884405623
 31
0.0
 70
   160
 42
133.0
  3
SLDDIMSTYLE0
100
AcDbAlignedDimension
 13
577.4781182996999
 23
424.8884405623
 33
0.0
 14
577.4781182996999
 24
557.8884405623
 34
0.0
 50
90.0
100
AcDbRotatedDimension
1001
ACAD
1000
DSTYLE
1002
{
1070
    77
1070
     3
1070
   143
1040
0.0393700787
1070
    41
1040
10.0
1070
    44
1040
4.0
1070
    42
1040
4.0
1070
   147
1040
6.096
1070
    73
1070
     0
1070
    74
1070
     0
1070
   140
1040
12.7
1070
   284
1070
    12
1070
    78
1070
    12
1002
}
  0
DIMENSION
  5
1FC
330
1F
100
AcDbEntity
  8
0
  6
Continuous
 62
     7
370
     0
100
AcDbDimension
  2
*D14
 10
469.5253045573
 20
364.8773759286001
 30
0.0
 11
489.7589652885
 21
364.8773759286001
 31
0.0
 70
   160
  1
[2.0]\P50
 42
50.8
  3
SLDDIMSTYLE0
100
AcDbAlignedDimension
 13
418.7253045573
 23
414.3465405623
 33
0.0
 14
469.5253045573
 24
414.3465405623
 34
0.0
100
AcDbRotatedDimension
1001
ACAD
1000
DSTYLE
1002
{
1070
    77
1070
     3
1070
   143
1040
0.0393700787
1070
    41
1040
10.0
1070
    44
1040
4.0
1070
    42
1040
4.0
1070
   147
1040
6.096
1070
    73
1070
     0
1070
    74
1070
     0
1070
   140
1040
12.7
1070
   284
1070
    12
1070
    78
1070
    12
1002
}
  0
DIMENSION
  5
213
330
1F
100
AcDbEntity
  8
WAKU
 62
     7
100
AcDbDimension
  2
*D15
 10
421.8315632189
 20
556.9170538098999
 30
0.0
 11
354.4715144317
 21
616.1522389125
 31
0.0
 70
   163
  1
[0.397]\P3/8"
 42
40.3352
  3
SLDDIMSTYLE3
100
AcDbDiametricDimension
 15
415.6190458957
 25
564.8598273147
 35
0.0
 40
0.0
1001
ACAD
1000
DSTYLE
1002
{
1070
    77
1070
     0
1070
   143
1040
0.0393700787
1070
    41
1040
10.0
1070
    44
1040
4.0
1070
    42
1040
4.0
1070
   147
1040
6.096
1070
    73
1070
     1
1070
    74
1070
     1
1070
   140
1040
12.7
1070
   284
1070
    12
1070
    78
1070
    12
1002
}
  0
INSERT
  5
232
330
1F
100
AcDbEntity
  8
0
  6
Continuous
 62
     7
370
     0
100
AcDbBlockReference
  2
SW_CENTERMARKSYMBOL_0
 10
418.7253045573
 20
560.8884405623
 30
0.0
  0
INSERT
  5
23E
330
1F
100
AcDbEntity
  8
0
  6
Continuous
 62
     7
370
     0
100
AcDbBlockReference
  2
SW_CENTERMARKSYMBOL_1
 10
469.5253045573
 20
560.8884405623
 30
0.0
  0
INSERT
  5
24A
330
1F
100
AcDbEntity
  8
0
  6
Continuous
 62
     7
370
     0
100
AcDbBlockReference
  2
SW_CENTERMARKSYMBOL_2
 10
418.7253045573
 20
421.8884405623
 30
0.0
  0
INSERT
  5
256
330
1F
100
AcDbEntity
  8
0
  6
Continuous
 62
     7
370
     0
100
AcDbBlockReference
  2
SW_CENTERMARKSYMBOL_3
 10
469.5253045573
 20
421.8884405623
 30
0.0
  0
LINE
  5
257
330
1F
100
AcDbEntity
  8
0
  6
CENTERX2
 62
     7
370
     0
100
AcDbLine
 10
434.189469085
 20
1066.9907597899
 30
0.0
 11
551.2054310327999
 21
949.9747978421
 31
0.0
  0
LWPOLYLINE
  5
258
330
1F
100
AcDbEntity
  8
0
  6
Continuous
 62
     7
370
     0
100
AcDbPolyline
 90
      879
 70
   128
 43
0.0
 10
481.2876359386
 20
890.4920490677
 10
481.3838750880999
 20
890.5785465832
 10
481.4799875778
 20
890.665357023
 10
481.5759734076999
 20
890.7524841125001
 10
481.6718325776
 20
890.8399204011001
 10
481.7675725383
 20
890.9276658888
 10
481.8631932897
 20
891.0157205756
 10
481.9586873812
 20
891.1040807361999
 10
482.063591556
 20
891.2016349132001
 10
482.1683467191999
 20
891.2995541686999
 10
482.2729528707999
 20
891.3978422278999
 10
482.3774174612999
 20
891.4964990909
 10
482.4817404907999
 20
891.5955173070001
 10
482.5859145087999
 20
891.6949006016
 10
482.6899469655999
 20
891.7946452494
 10
482.7938378615
 20
891.894747525
 10
482.8975797456999
 20
891.9952111537
 10
483.0011875194999
 20
892.0960286850998
 10
483.1028059881999
 20
892.1953933532
 10
483.2042903466
 20
892.2951007481
 10
483.3056331437999
 20
892.3951471442999
 10
483.4068492812
 20
892.4955288167
 10
483.5097641509999
 20
892.5980823333
 10
483.6125449104
 20
892.7009860271999
 10
483.7151915591999
 20
892.8042361731
 10
483.8176966470999
 20
892.9078290457999
 10
483.9200676244999
 20
893.0117646450998
 10
484.0204790991999
 20
893.1141766007
 10
484.1207564634999
 20
893.2169163817999
 10
484.2209146183999
 20
893.3199839885
 10
484.3209386628999
 20
893.4233756955
 10
484.4228700561
 20
893.5292074675999
 10
484.5246673387999
 20
893.6353782411
 10
484.6263379616
 20
893.7418805653999
 10
484.7278819246
 20
893.8487181658999
 10
484.8292917770999
 20
893.9558835918999
 10
484.9305675191
 20
894.0633805686999
 10
485.0317166013
 20
894.1712016458
 10
485.1325155062
 20
894.2791158552001
 10
485.2331952017999
 20
894.3873504395
 10
485.3337407869999
 20
894.4959053988
 10
485.4341597122
 20
894.6047807331
 10
485.5344594282
 20
894.7139764422999
 10
485.632844345
 20
894.8215292985
 10
485.7311100525
 20
894.9293839033
 10
485.8292565506999
 20
895.0375439817999
 10
485.9272838395999
 20
895.1460020835
 10
486.0271961253999
 20
895.2569859321
 10
486.1269817513999
 20
895.3682789798
 10
486.2266407173999
 20
895.4798812265
 10
486.3261879248
 20
895.5917889471001
 10
486.4256159228999
 20
895.7040021414998
 10
486.5249172611
 20
895.8165208096001
 10
486.6241068405
 20
895.9293449516
 10
486.7231772106999
 20
896.0424671167999
 10
486.8221283716001
 20
896.1558873053
 10
486.9209677737999
 20
896.2696055169001
 10
487.0196879667999
 20
896.3836217518
 10
487.1182889504
 20
896.4979322846001
 10
487.2167856258999
 20
896.6125371152999
 10
487.3151630920999
 20
896.7274325187
 10
487.4232412141999
 20
896.8541519935
 10
487.5311926765
 20
896.9812216455999
 10
487.6390100283
 20
897.1086377497
 10
487.7466858191
 20
897.2363965805
 10
487.8542349499999
 20
897.3644981378999
 10
487.951673643
 20
897.4809991414
 10
488.049008028
 20
897.5977758164001
 10
488.1462306541999
 20
897.7148281628998
 10
488.2433489723
 20
897.8321561808998
 10
488.3403629822
 20
897.9497598703
 10
488.4355366988
 20
898.0655307169
 10
488.5306135576999
 20
898.1815586085
 10
488.6255935591999
 20
898.2978472704999
 10
488.7204618019
 20
898.4143967028
 10
488.8332859439
 20
898.5534804161
 10
488.9459610742999
 20
898.6929254825
 10
489.0584946436
 20
898.8327281767999
 10
489.1709015530999
 20
898.9728884989999
 10
489.2831594508999
 20
899.1134027238
 10
489.3952906888999
 20
899.2542708511001
 10
489.5072878165
 20
899.3954854305
 10
489.619143383
 20
899.5370501871001
 10
489.7308722895999
 20
899.6789576703999
 10
489.8424670858
 20
899.8212078805
 10
489.9539352220999
 20
899.9637933666999
 10
490.0652766984999
 20
900.1067215795
 10
490.1701287193
 20
900.2417857045999
 10
490.2748764318999
 20
900.3771441275999
 10
490.3795049351999
 20
900.5127968485
 10
490.4840291304
 20
900.6487401421001
 10
490.5884415669
 20
900.7849740082999
 10
490.6990603369999
 20
900.9297797674999
 10
490.8095598977999
 20
901.0749021763999
 10
490.9199327987999
 20
901.2203412349
 10
491.0301864905
 20
901.3661006683999
 10
491.1403209729
 20
901.512169301
 10
491.2503436965
 20
901.6585471327001
 10
491.3539663715
 20
901.7968448097999
 10
491.4574921888999
 20
901.935414433
 10
491.5609136980999
 20
902.0742522771
 10
491.6642308992999
 20
902.2133583422
 10
491.7674437922999
 20
902.3527289027999
 10
491.8825254601999
 20
902.5085875983
 10
491.9974879187999
 20
902.6647741194
 10
492.1123237175
 20
902.8212791527
 10
492.2270403069999
 20
902.9781045611001
 10
492.3416376870999
 20
903.1352466191
 10
492.4561233086
 20
903.2927034641
 10
492.5704822702
 20
903.4504695082999
 10
492.6847369235999
 20
903.6085428889
 10
492.8030521434999
 20
903.7727406466999
 10
492.9212556047
 20
903.9372606422
 10
493.0393324059999
 20
904.1021028752
 10
493.1572974486
 20
904.267261758
 10
493.2751432818999
 20
904.4327372904
 10
493.3928699058999
 20
904.5985238845
 10
493.5104847712
 20
904.7646178151
 10
493.6397299928
 20
904.9476748550999
 10
493.7688411039999
 20
905.1310951109
 10
493.8978181047
 20
905.3148785824999
 10
494.0266609949
 20
905.4990159566001
 10
494.1553772253
 20
905.6835072333999
 10
494.2839667958999
 20
905.8683449621
 10
494.4124297065
 20
906.0535254176
 10
494.5407734079
 20
906.2390467371001
 10
494.6689904494
 20
906.4249033327
 10
494.7970882816
 20
906.6110896165
 10
494.9227795761999
 20
906.7942695911
 10
495.0483591122
 20
906.9777587646999
 10
495.1738343399999
 20
907.1615552747999
 10
495.2991978092
 20
907.3456553960999
 10
495.4267293972
 20
907.5334081644999
 10
495.5541492266
 20
907.7214664067
 10
495.6814647477999
 20
907.9098263974
 10
495.808675961
 20
908.0984825487
 10
495.9357754154
 20
908.2874311353
 10
496.0605130357
 20
908.4732858682999
 10
496.1851537984999
 20
908.6594162727999
 10
496.3096977038
 20
908.8458148981001
 10
496.4341447515
 20
909.0324780191
 10
496.5821803373999
 20
909.2550399001
 10
496.7300892633999
 20
909.4779631341999
 10
496.8778715294999
 20
909.7012458588
 10
497.0255420369
 20
909.924876898
 10
497.1730858844999
 20
910.1488525266999
 10
497.3205179733999
 20
910.3731634314
 10
497.4611402315
 20
910.5875874157002
 10
497.6016656322
 20
910.8023056978998
 10
497.7420941753
 20
911.0173126900999
 10
497.8824258608
 20
911.2326028044
 10
498.0226681393999
 20
911.4481685901999
 10
498.1628135604
 20
911.6640044594999
 10
498.3028770251
 20
911.8801066871
 10
498.4428585333
 20
912.0964659596999
 10
498.5894189041999
 20
912.3234013314
 10
498.7358898682
 20
912.5506049241
 10
498.8822714251999
 20
912.778074875
 10
499.0285784764
 20
913.0058000083
 10
499.1748035711999
 20
913.2337747360001
 10
499.3209541601
 20
913.4619934703
 10
499.4962365193
 20
913.7361673857
 10
499.6714294714
 20
914.0106709892998
 10
499.8465181155
 20
914.2854893799
 10
500.0215173524999
 20
914.5606132442999
 10
500.1964420838
 20
914.8360314066
 10
500.3681556148
 20
915.106804132
 10
500.5398020905999
 20
915.3778376275999
 10
500.7113815111
 20
915.6491188550999
 10
500.8829013270999
 20
915.9206385012
 10
501.0848865669999
 20
916.2407936746999
 10
501.2867973011999
 20
916.5612468715
 10
501.4886484308
 20
916.8819757397001
 10
501.6904399556
 20
917.2029653783001
 10
501.8921867769999
 20
917.5241952980998
 10
502.0938888949999
 20
917.8456487352999
 10
502.2955612106
 20
918.1673052007999
 10
502.5728271169
 20
918.6098827267999
 10
502.8500557703
 20
919.0527647952
 10
503.1272844237999
 20
919.4959029774
 10
503.4045279784
 20
919.9392507071001
 10
503.7346259517
 20
920.4672500710001
 10
504.0647984308999
 20
920.9953984464
 10
504.3950975698999
 20
921.5236129458
 10
504.7255457204999
 20
922.051815338
 10
505.0561764103999
 20
922.5799236664999
 10
505.3870306176
 20
923.1078587690999
 10
505.6095049542999
 20
923.462493367
 10
505.8321059508
 20
923.8169882664999
 10
506.0548373323999
 20
924.1713201846
 10
506.2777214509999
 20
924.5254639755
 10
506.5007583064
 20
924.8793954248
 10
506.7199730141
 20
925.2267759511999
 10
506.9393628102999
 20
925.5739050204999
 10
507.1589276951999
 20
925.9207593496
 10
507.3786862951999
 20
926.2673165867999
 10
507.5546392066
 20
926.544332433
 10
507.7307225030999
 20
926.8211308153999
 10
507.9069436354
 20
927.0977005581
 10
508.083310054
 20
927.3740290883001
 10
508.2598217589
 20
927.65010523
 10
508.4333346051999
 20
927.920993905
 10
508.606996463
 20
928.1916166873999
 10
508.7808185083
 20
928.4619614700998
 10
508.9548007411
 20
928.7320175427
 10
509.1159940523
 20
928.9817195603999
 10
509.2773326498999
 20
929.2311556856001
 10
509.438820259
 20
929.4803175363
 10
509.6004643304
 20
929.7291953335001
 10
509.7622648638999
 20
929.9777802299001
 10
509.9242293101999
 20
930.2260643089999
 10
510.0863576693
 20
930.4740375591999
 10
510.2351271373999
 20
930.7010665289
 10
510.3840381665
 20
930.9278200598999
 10
510.5331019324999
 20
931.1542918658998
 10
510.6823147101
 20
931.3804747289999
 10
510.8316802246
 20
931.6063618972
 10
510.9812059265999
 20
931.8319468511999
 10
511.1308918160999
 20
932.0572221404999
 10
511.280737893
 20
932.2821814785999
 10
511.4307516080999
 20
932.5068177641
 10
511.5809329612
 20
932.7311240122
 10
511.7312894029
 20
932.9550937037
 10
511.881817208
 20
933.1787197371001
 10
512.0239072305
 20
933.3892462528
 10
512.1661574405999
 20
933.599455595
 10
512.3085678380999
 20
933.8093418847
 10
512.4511458737
 20
934.0188994574999
 10
512.5938915473999
 20
934.2281225473
 10
512.7238110464999
 20
934.4180302796999
 10
512.8538683814
 20
934.6076525035
 10
512.9840710026999
 20
934.7969849696001
 10
513.1144189102
 20
934.9860233124001
 10
513.2449158294
 20
935.1747632245
 10
513.3755654854
 20
935.3632003986
 10
513.5063604278
 20
935.5513304690999
 10
513.6263967318
 20
935.7235096614001
 10
513.7465596956999
 20
935.8954240088001
 10
513.8668530447001
 20
936.0670699025
 10
513.9872842295
 20
936.2384444321001
 10
514.1078457994
 20
936.4095437558999
 10
514.2285452050999
 20
936.5803650799
 10
514.3493824465
 20
936.7509046787999
 10
514.4703575235999
 20
936.9211595258999
 10
514.5914741617999
 20
937.0911261285
 10
514.7127286357
 20
937.2608012272999
 10
514.8341321212999
 20
937.4301813296
 10
514.9556771678
 20
937.5992634086999
 10
515.0704086583999
 20
937.7584075774
 10
515.1852742594999
 20
937.9172809641001
 10
515.3002702456999
 20
938.0758810075999
 10
515.4153966171
 20
938.2342039825999
 10
515.5306608242
 20
938.3922484921999
 10
515.6517811876999
 20
938.5578199508
 10
515.7730542880999
 20
938.7230775538
 10
515.8944764001001
 20
938.8880180414
 10
516.0160549742999
 20
939.0526386197
 10
516.1377862852999
 20
939.2169355632999
 10
516.2596740586
 20
939.3809056128
 10
516.3817220194
 20
939.5445459741001
 10
516.4937377733999
 20
939.6942570092999
 10
516.6058876378
 20
939.8436858536999
 10
516.7181716126999
 20
939.9928297135001
 10
516.8305934233
 20
940.1416867258999
 10
516.943156795
 20
940.2902531656
 10
517.0558542771
 20
940.4385276357
 10
517.1686933201999
 20
940.5865073422999
 10
517.2816739244
 20
940.7341899568999
 10
517.3947960895999
 20
940.8815726857001
 10
517.5080598158
 20
941.0286532002
 10
517.6214725537001
 20
941.1754291722999
 10
517.7350268525
 20
941.3218978079999
 10
517.8422258062
 20
941.4597135256
 10
517.9495551449999
 20
941.5972512433999
 10
518.0570185942
 20
941.7345100301
 10
518.1646161538999
 20
941.8714875574
 10
518.2723440987
 20
942.0081805656
 10
518.3867477637999
 20
942.1528466265
 10
518.5013078911
 20
942.297188587
 10
518.6160170298999
 20
942.4412045847001
 10
518.7308826309999
 20
942.5848918253999
 10
518.8459046942999
 20
942.7282475153999
 10
518.9610832196999
 20
942.8712697917999
 10
519.0698207182
 20
943.0058114449
 10
519.1787035031
 20
943.1400513494999
 10
519.2877278489
 20
943.2739885742998
 10
519.3968937558
 20
943.4076212564999
 10
519.5062012238
 20
943.5409466022999
 10
519.6156577033
 20
943.6739618177
 10
519.7252557438999
 20
943.8066669027
 10
519.8350027960999
 20
943.9390581319999
 10
519.9448951345999
 20
944.0711336428998
 10
520.0549364846999
 20
944.2028915728
 10
520.1631561679
 20
944.3319849889
 10
520.2715248626999
 20
944.4607692057999
 10
520.3800351185
 20
944.5892404983998
 10
520.4886906606
 20
944.7173979352001
 10
520.5894001586
 20
944.8357410947998
 10
520.6902325910999
 20
944.9538113767998
 10
520.7911916835
 20
945.0716078499999
 10
520.892281161
 20
945.1891286517
 10
520.9934972983999
 20
945.3063719193
 10
521.094843821
 20
945.4233376528
 10
521.1963207286999
 20
945.5400221268
 10
521.3080943387999
 20
945.6680491785
 10
521.4200318616999
 20
945.7957335035001
 10
521.5321258468
 20
945.9230732391
 10
521.6443800194
 20
946.0500646600999
 10
521.7567943794001
 20
946.1767077664999
 10
521.8693726521999
 20
946.3029988328999
 10
521.9821148377999
 20
946.4289359967001
 10
522.0950246615
 20
946.5545183266
 10
522.2080946726
 20
946.6797467539999
 10
522.3213285965
 20
946.8046222100999
 10
522.4326998752998
 20
946.9269253532001
 10
522.5442276162
 20
947.0488904263001
 10
522.6559118194
 20
947.1705183605001
 10
522.76775621
 20
947.2918110186999
 10
522.8817910712999
 20
947.414966322
 10
522.9959935706999
 20
947.5377761046001
 10
523.1103525323
 20
947.6602422292
 10
523.2248754067
 20
947.7823656271
 10
523.3395584684999
 20
947.9041481609
 10
523.4523490828999
 20
948.0234245057001
 10
523.5652961594
 20
948.1423748876
 10
523.6783996982
 20
948.2610002378999
 10
523.7916559737999
 20
948.3793014878999
 10
523.9073821169999
 20
948.4996842439
 10
524.0232684476
 20
948.6197326551
 10
524.1393149657
 20
948.7394476527999
 10
524.2555216711999
 20
948.8588301684
 10
524.371884839
 20
948.9778820644
 10
524.4884119194999
 20
949.0966042722
 10
524.6050954623
 20
949.2149995859
 10
524.7110762459999
 20
949.3221137891
 10
524.8171874148
 20
949.4289597714999
 10
524.9234289687999
 20
949.5355393956
 10
525.0297971826999
 20
949.6418526614998
 10
525.1362995071
 20
949.7479005003999
 10
525.2429284912999
 20
949.8536857063999
 10
525.3496878606999
 20
949.9592082794
 10
525.4672729236
 20
950.0749809886
 10
525.5850107235
 20
950.1904370482002
 10
525.7029049855999
 20
950.3055801833999
 10
525.8209557098999
 20
950.4204085314999
 10
525.939159171
 20
950.5349276805999
 10
526.0575190944
 20
950.6491357678999
 10
526.1760317547
 20
950.7630346561999
 10
526.2946971518
 20
950.8766262078999
 10
526.4135190112
 20
950.9899104232999
 10
526.5324936075
 20
951.1028910273999
 10
526.6494900745999
 20
951.2135600889999
 10
526.7666392786
 20
951.3239348525999
 10
526.8839300436
 20
951.4340209062
 10
527.0013698202999
 20
951.5438182498
 10
527.1210969251999
 20
951.6553161883999
 10
527.2409730416999
 20
951.7665161038999
 10
527.3610018951
 20
951.8774217213
 10
527.4811797602
 20
951.9880311782001
 10
527.6015103621
 20
952.0983481997999
 10
527.7198404831
 20
952.2064132835
 10
527.8383121652
 20
952.3141971077
 10
527.9569328588999
 20
952.4217015350998
 10
528.0756951135999
 20
952.5289284283999
 10
528.1970278185999
 20
952.6380589450999
 10
528.3185132605
 20
952.7469044769999
 10
528.4401439887999
 20
952.8554631616
 10
528.5619274539
 20
952.9637387241001
 10
528.6838599306999
 20
953.0717330272
 10
528.8059414191
 20
953.1794442082999
 10
528.9281681937999
 20
953.2868778552
 10
529.0502794844
 20
953.393797412
 10
529.1725360615
 20
953.5004431600999
 10
529.2949379248
 20
953.6068132366001
 10
529.4174887997
 20
953.7129113668999
 10
529.5401812356999
 20
953.8187375510998
 10
529.6608284873
 20
953.9224105174
 10
529.7816173
 20
954.0258227135
 10
529.9025439483
 20
954.1289778644999
 10
530.0236121578
 20
954.2318741078
 10
530.1472955209999
 20
954.3366087819
 10
530.2711241705
 20
954.4410770978
 10
530.395094381
 20
954.5452827806
 10
530.5192136031999
 20
954.6492239678999
 10
530.6434743864
 20
954.7529062475
 10
530.7678767305999
 20
954.8563277568
 10
530.8924280864999
 20
954.9594903583001
 10
531.0171210032999
 20
955.0623977775998
 10
531.1419554812
 20
955.1650481517
 10
531.2669315201999
 20
955.2674433435001
 10
531.3920528454
 20
955.3695870782
 10
531.5173157317
 20
955.4714774932
 10
531.6427201789999
 20
955.5731201763
 10
531.7682699127
 20
955.6745114024
 10
531.9065340621
 20
955.7857560212999
 10
532.0449695748999
 20
955.8967044796
 10
532.1835727256999
 20
956.0073549147
 10
532.3223509651999
 20
956.1177110517999
 10
532.4612931174999
 20
956.2277747536999
 10
532.5951316219999
 20
956.3333923216001
 10
532.7291228635
 20
956.4387398059
 10
532.8632742923999
 20
956.5438227947
 10
532.9975784582
 20
956.6486412877999
 10
533.132035361
 20
956.7531971480001
 10
533.2666524511999
 20
956.8574922377999
 10
533.3937146526999
 20
956.9555884446
 10
533.52091469
 20
957.053455546
 10
533.6482525629
 20
957.1510954046999
 10
533.7757245463999
 20
957.2485061581
 10
533.9033380908
 20
957.3456933941001
 10
534.0459198517
 20
957.4538963133999
 10
534.1886692506999
 20
957.5618216986999
 10
534.331590013
 20
957.6694714124
 10
534.4746784133
 20
957.7768473173
 10
534.6179344518
 20
957.8839512761
 10
534.7613581281999
 20
957.9907851511999
 10
534.9049494427999
 20
958.0973508055
 10
535.0487046701
 20
958.2036501015
 10
535.1926275355
 20
958.3096849019
 10
535.3367143136999
 20
958.4154570694
 10
535.4809687298999
 20
958.5209684665001
 10
535.6253870588999
 20
958.626220956
 10
535.769973026
 20
958.7312164004
 10
535.9147191805
 20
958.8359566623999
 10
536.0596311105
 20
958.9404436047001
 10
536.2047050905999
 20
959.0446790898999
 10
536.3568627101999
 20
959.1536103035
 10
536.5091991437
 20
959.2622695709
 10
536.6617125284999
 20
959.3706587547998
 10
536.8144028645999
 20
959.4787797178
 10
536.9672720147
 20
959.5866361852001
 10
537.1203162533999
 20
959.6942281569001
 10
537.2874756169998
 20
959.8113047177999
 10
537.4548435969
 20
959.9280720795
 10
537.622420193
 20
960.0445339674999
 10
537.7902035427999
 20
960.1606941069
 10
537.9581955087998
 20
960.2765524979
 10
538.1263923657
 20
960.3921147282001
 10
538.2947959762999
 20
960.5073826606
 10
538.4493470948999
 20
960.6127878869999
 10
538.6040695769
 20
960.7179509694999
 10
538.7589634222
 20
960.8228737707001
 10
538.9140286308998
 20
960.9275562907001
 10
539.0692652029001
 20
961.0320022548
 10
539.2246712756999
 20
961.1362153883
 10
539.3802468490999
 20
961.2401956911
 10
539.5359919232999
 20
961.3439450258999
 10
539.6919064981
 20
961.4474652553999
 10
539.8479905737
 20
961.5507619674
 10
540.0042404247
 20
961.6538332994
 10
540.1606597763999
 20
961.7566829765999
 10
540.3452236963
 20
961.8776170755999
 10
540.5300204468
 20
961.998249426
 10
540.7150463027
 20
962.1185837531999
 10
540.9003031266
 20
962.2386237824999
 10
541.0719849927
 20
962.3494753833
 10
541.2438624364999
 20
962.4600792522
 10
541.4159335954
 20
962.5704409773
 10
541.5882003319999
 20
962.6805605586
 10
541.7606607837
 20
962.7904417211999
 10
541.9333149505
 20
962.9000881905
 10
542.1061609698
 20
963.0094999666001
 10
542.2965139908
 20
963.1295884247
 10
542.4870979798
 20
963.2494030739
 10
542.6779129369
 20
963.3689457768999
 10
542.8689588619
 20
963.4882202590999
 10
543.0602338923001
 20
963.6072321082
 10
543.2517361653
 20
963.7259831871
 10
543.4434675438
 20
963.8444772209
 10
543.6354243023
 20
963.962717935
 10
543.8276083035
 20
964.0807109172
 10
544.0200176848
 20
964.1984580303001
 10
544.2092084152
 20
964.3138675238001
 10
544.3986170750999
 20
964.4290460491999
 10
544.5882380766001
 20
964.5439991946
 10
544.7780751448999
 20
964.6587306852
 10
544.9715834867999
 20
964.7753210957001
 10
545.1653116209
 20
964.8916879888
 10
545.3592595469999
 20
965.0078350897
 10
545.5534272652999
 20
965.1237661237999
 10
545.7478129131
 20
965.2394848163
 10
545.9389389318999
 20
965.3529348071
 10
546.1302735669
 20
965.4661836321
 10
546.3218168182
 20
965.5792387421
 10
546.5135686856999
 20
965.6921038623
 10
546.7421115201999
 20
965.8262217636
 10
546.9709486526999
 20
965.9600788946001
 10
547.2000744950999
 20
966.0936827059
 10
547.4294890476
 20
966.2270369227
 10
547.6591923099999
 20
966.3601489955999
 10
547.8891824198
 20
966.4930226499999
 10
548.1199008239
 20
966.6259223814
 10
548.3509042126
 20
966.7585948700999
 10
548.5821925860999
 20
966.8910512919
 10
548.813762219
 20
967.0232879217
 10
549.0456131112999
 20
967.1553196604
 10
549.277745263
 20
967.2871502335
 10
549.4968668383998
 20
967.4112657303998
 10
549.7162361455
 20
967.5352135892
 10
549.9358513219
 20
967.6589938099001
 10
550.1557105046999
 20
967.7826138432001
 10
550.3758136941001
 20
967.9060811396
 10
550.5961590273
 20
968.0293994242999
 10
550.8167465044
 20
968.1525724227
 10
551.0375742626999
 20
968.2756038600999
 10
551.2586404396
 20
968.3985011871001
 10
551.4799450349999
 20
968.5212718542
 10
551.6975299280999
 20
968.6417253907
 10
551.915342064
 20
968.7620597178998
 10
552.1333805112
 20
968.8822860116999
 10
552.3516452697
 20
969.0024079974
 10
552.5999461126999
 20
969.1387834246
 10
552.8485356656
 20
969.2750359173
 10
553.0974120659
 20
969.4111692007
 10
553.3465743822
 20
969.5471907252999
 10
553.5960216833
 20
969.6831079419
 10
553.845751175
 20
969.8189283009
 10
554.0957628574999
 20
969.9546592528999
 10
554.3460539367999
 20
970.0903045232001
 10
554.6085611742999
 20
970.2323312159
 10
554.8713738855999
 20
970.3742796774001
 10
555.1344874141
 20
970.5161573584
 10
555.3979017598
 20
970.6579791600999
 10
555.66161506
 20
970.7997450824001
 10
555.9256254522
 20
970.9414663011999
 10
556.2139731658
 20
971.0960323210001
 10
556.5026701253999
 20
971.2505610877999
 10
556.7917144683999
 20
971.4050712283
 10
557.0811024693
 20
971.5595664674999
 10
557.3708341282999
 20
971.7140579815
 10
557.6609057199999
 20
971.8685569459999
 10
557.9513153819
 20
972.0230745369999
 10
558.2178198558999
 20
972.1647436017999
 10
558.4846037266
 20
972.3064387436
 10
558.7516679254999
 20
972.4481748636
 10
559.0190077957999
 20
972.5899594122999
 10
559.2866242689
 20
972.7317998404
 10
559.5545136196
 20
972.8737035985
 10
559.8226753820999
 20
973.0156781371
 10
560.0911076937999
 20
973.1577309066999
 10
560.3598082263999
 20
973.2998693580999
 10
560.6287760486
 20
973.4421046669
 10
560.8980083664
 20
973.5844405587
 10
561.1675047141999
 20
973.7268882090999
 10
561.4218409930999
 20
973.8613041336
 10
561.6764087056
 20
973.9958355422
 10
561.9312059891999
 20
974.1304824346999
 10
562.1862314468
 20
974.2652522619
 10
562.4414846126999
 20
974.4001561994
 10
562.7370994363999
 20
974.5564172263
 10
563.0330146117
 20
974.7128719682999
 10
563.3292268787999
 20
974.8695353264999
 10
563.6257346079999
 20
975.0264147514998
 10
563.9225354709999
 20
975.183517694
 10
564.2196273723
 20
975.340859055
 10
564.5170077507999
 20
975.4984462852
 10
564.789858024
 20
975.6431291099001
 10
565.0629474141999
 20
975.7880317266
 10
565.3362741752999
 20
975.9331690366
 10
565.6098363282
 20
976.0785484904999
 10
565.8836324758
 20
976.2241738135999
 10
566.1576607555999
 20
976.3700524563999
 10
566.4319195377999
 20
976.5161993200999
 10
566.7064070469999
 20
976.6626144047
 10
566.9811216097
 20
976.809308886
 10
567.2560615087999
 20
976.9562902147999
 10
567.5312250270999
 20
977.1035658414
 10
567.8066105058999
 20
977.2511469419001
 10
568.0664613785999
 20
977.3905808324999
 10
568.3265066066
 20
977.5302941197999
 10
568.5867446766999
 20
977.6702979798001
 10
568.8471743663
 20
977.810599863
 10
569.1077940458
 20
977.9512034948
 10
569.3448847916999
 20
978.0792938763999
 10
569.5821301371999
 20
978.2076450283
 10
569.8195293837999
 20
978.3362606759
 10
570.0570813671999
 20
978.4651482696
 10
570.2947846905999
 20
978.5943115349001
 10
570.5326386553999
 20
978.7237541969
 10
570.7706420974
 20
978.8534837062
 10
570.9889422463
 20
978.9726594682001
 10
571.2073664937999
 20
979.0920810992998
 10
571.4259134431999
 20
979.2117523247998
 10
571.6445823958
 20
979.3316843207001
 10
571.8633728858999
 20
979.4518733616
 10
572.0822839823999
 20
979.5723268980999
 10
572.3013147537999
 20
979.6930449301999
 10
572.5204647345
 20
979.8140349085
 10
572.7397320618
 20
979.9353005583
 10
572.9591172015
 20
980.0568456049001
 10
573.1786182908
 20
980.1786737735
 10
573.3982353297
 20
980.3007887894999
 10
573.6054075708
 20
980.4161871071
 10
573.812681326
 20
980.5318499203
 10
574.0200556641
 20
980.6477772291
 10
574.2275301193
 20
980.7639727588
 10
574.4351032947999
 20
980.8804402347
 10
574.634899461
 20
980.9927465613
 10
574.8347859655999
 20
981.1053136582001
 10
575.0347628083999
 20
981.2181378002
 10
575.2348285926
 20
981.3312227124999
 10
575.4349828524
 20
981.4445758457001
 10
575.6352255877999
 20
981.5581934744999
 10
575.8241061879
 20
981.6655712421001
 10
576.0130640876999
 20
981.7731874282001
 10
576.2020983558999
 20
981.8810532088001
 10
576.3912089926999
 20
981.9891648586001
 10
576.5803950665
 20
982.0975261027999
 10
576.7696575087999
 20
982.2061406667
 10
576.9589935256
 20
982.3150122757001
 10
577.1484040480999
 20
982.4241409297
 10
577.3378881451999
 20
982.5335266287
 10
577.5274448853999
 20
982.6431805487001
 10
577.7136879799
 20
982.7511282855999
 10
577.8999999923001
 20
982.8593367929
 10
578.0863818539
 20
982.9678023453
 10
578.272831702
 20
983.0765323932
 10
578.4627414135
 20
983.1875125165
 10
578.6527209741
 20
983.2987683113
 10
578.842770384
 20
983.4103035027998
 10
579.0328896431
 20
983.5221180911
 10
579.2230759573999
 20
983.6342158015
 10
579.4099327934
 20
983.7445924277
 10
579.5968548221
 20
983.8552484507999
 10
579.7838420433
 20
983.9661838705
 10
579.9708925945
 20
984.0773986871001
 10
580.1618258294999
 20
984.1911802286999
 10
580.3528251883999
 20
984.3052635188
 10
580.5438897399
 20
984.4196448321
 10
580.7350194839
 20
984.5343316192998
 10
580.9262125579
 20
984.6493238802001
 10
581.1174698931999
 20
984.7646290654999
 10
581.3087896269999
 20
984.8802434499001
 10
581.4997545269999
 20
984.9959174389999
 10
581.6907808942
 20
985.1119043524001
 10
581.8818696601
 20
985.2282116408
 10
582.0730180305999
 20
985.3448393042
 10
582.264226937
 20
985.4617873424999
 10
582.4520802883
 20
985.5769621427
 10
582.6399895188999
 20
985.6924498672
 10
582.8279555601
 20
985.8082616919999
 10
583.0159784121
 20
985.9243864412
 10
583.2078960549999
 20
986.0432194764999
 10
583.3998714399999
 20
986.1623840625
 10
583.5919027042999
 20
986.2818913753001
 10
583.783989848
 20
986.4017451400998
 10
583.9761328709999
 20
986.5219379063001
 10
584.1683317732999
 20
986.6424808497001
 10
584.3605865550999
 20
986.7633739705
 10
584.5528934907999
 20
986.8846172686
 10
584.745256306
 20
987.0062181945
 10
584.9376712751999
 20
987.128173023
 10
585.1301383984999
 20
987.2504892046
 10
585.3226595384
 20
987.3731667395
 10
585.5152309698
 20
987.4962093527001
 10
585.7078545552999
 20
987.6196170444
 10
585.8844687057
 20
987.7330670352
 10
586.0611275595999
 20
987.8468299502999
 10
586.237825529
 20
987.9609020646
 10
586.4145663392999
 20
988.0752945538
 10
586.5913481277999
 20
988.1899999672999
 10
586.7681708943999
 20
988.3050294811999
 10
586.9606920344
 20
988.4306052917999
 10
587.1532616031999
 20
988.5565648074001
 10
587.3458758754
 20
988.6829080278998
 10
587.5385367138
 20
988.8096424038
 10
587.7312441183
 20
988.9367642099999
 10
587.9205466073999
 20
989.0619935686999
 10
588.1098826241999
 20
989.1875991816
 10
588.299244718
 20
989.3135773237
 10
588.4886310261999
 20
989.4399242694001
 10
588.6818972241999
 20
989.5692328209999
 10
588.8751745982
 20
989.6989250774
 10
589.0684575599999
 20
989.8290010388
 10
589.2617405218
 20
989.959460705
 10
589.4550160330999
 20
990.0902966255999
 10
589.6482803685
 20
990.2215125257999
 10
589.8415260773999
 20
990.3531046802999
 10
590.034747572
 20
990.4850730891
 10
590.2279411269001
 20
990.6174177522999
 10
590.4210974288999
 20
990.7501349444
 10
590.6142127526
 20
990.8832246656
 10
590.8072815102999
 20
991.0166831906
 10
591.0002962512
 20
991.1505105192999
 10
591.1932532502
 20
991.2847103769999
 10
591.3700741541999
 20
991.4080435628999
 10
591.5468373162
 20
991.5316896732001
 10
591.7235352855999
 20
991.655637532
 10
591.9001661999
 20
991.7798908646
 10
592.0767244709
 20
991.904449671
 10
592.2532063734999
 20
992.029310226
 10
592.4456399691999
 20
992.1658681924
 10
592.6379711193
 20
992.3027800614999
 10
592.8301923733999
 20
992.4400532836999
 10
593.0223018688
 20
992.5776804085002
 10
593.2142902923
 20
992.7156614358001
 10
593.4061520558999
 20
992.8539926404999
 10
593.5978834343
 20
992.9926777477
 10
593.7735178333999
 20
993.1201124782999
 10
593.9490311604999
 20
993.2478415066999
 10
594.1244196904
 20
993.3758611077999
 10
594.2996796977999
 20
993.5041712816
 10
594.4748055947
 20
993.6327720279999
 10
594.6497955186
 20
993.7616596216999
 10
594.8246420187
 20
993.8908377880999
 10
594.9993413698999
 20
994.0203028018
 10
595.1738898469
 20
994.1500546628999
 10
595.3482837241999
 20
994.2800896460999
 10
595.5225155514999
 20
994.4104077512999
 10
595.696583466
 20
994.5410089785999
 10
595.8605483932
 20
994.6644054944
 10
596.0243605835
 20
994.78805533
 10
596.1880144489
 20
994.9119473094999
 10
596.3515081269
 20
995.0360926086998
 10
596.5148341668
 20
995.1604800518
 10
596.6944304121
 20
995.2976973946
 10
596.8738180411
 20
995.4352090353999
 10
597.0529896033
 20
995.5730149741
 10
597.2319395108
 20
995.7111189360999
 10
597.4106659008
 20
995.8495171958999
 10
597.5891613228
 20
995.9882060285
 10
597.7674239141
 20
996.1271854336001
 10
597.9306177061999
 20
996.2548399563001
 10
598.0936066074
 20
996.3827366227999
 10
598.2563868923
 20
996.5108754332002
 10
598.4189548355999
 20
996.6392563875
 10
598.5813029867999
 20
996.7678757603
 10
598.7434313458999
 20
996.8967335517
 10
598.9053324622
 20
997.0258297617
 10
599.0670063358999
 20
997.1551718408999
 10
599.2284492416001
 20
997.2847374375
 10
599.3896537287001
 20
997.4145489032
 10
599.5506197972
 20
997.5445913369998
 10
599.7113399965
 20
997.6748721892999
 10
599.8626501126
 20
997.7979185278
 10
600.0137329859
 20
997.9211734827
 10
600.1645923418
 20
998.0446296031001
 10
600.3152207298
 20
998.1682943399
 10
600.4656144243999
 20
998.2921602422999
 10
600.6248631341
 20
998.4237598474001
 10
600.7838436229
 20
998.5555904205
 10
600.9425484401999
 20
998.687644511
 10
601.1009775859999
 20
998.8199221188999
 10
601.2591236097001
 20
998.9524306948
 10
601.4169865113999
 20
999.0851627880999
 10
601.5655585391
 20
999.2105113561001
 10
601.7138735216999
 20
999.3360610896999
 10
601.8619240088
 20
999.4618045384999
 10
602.0097062748999
 20
999.5877491528998
 10
602.1572203201999
 20
999.7138874824001
 10
602.3044586939
 20
999.8402195269999
 10
602.4514213962
 20
999.9667527373
 10
602.5981047016999
 20
1000.0934722121
 10
602.7445048850999
 20
1000.220385402
 10
602.8906182212
 20
1000.3474997575
 10
603.0338407319999
 20
1000.4725204999
 10
603.1767801207999
 20
1000.5977275069
 10
603.3194326622
 20
1000.7231207783
 10
603.4617983562
 20
1000.8486928637
 10
603.5933122796
 20
1000.9650932844
 10
603.7245766086
 20
1001.0816427166
 10
603.8555838925
 20
1001.1983486111
 10
603.9863341313999
 20
1001.3152109678
 10
604.1168273252999
 20
1001.432222336
 10
604.2470560235
 20
1001.5493901665
 10
604.3770202262
 20
1001.6667070086
 10
604.5196727676
 20
1001.795937329
 10
604.6620012087
 20
1001.9253464634
 10
604.803998099
 20
1002.0549344118
 10
604.9456597132
 20
1002.1847086246
 10
605.0869897764999
 20
1002.3146616514
 10
605.2279771132
 20
1002.4448009427
 10
605.3686254483999
 20
1002.5751115973
 10
605.5089273316
 20
1002.7056085164
 10
605.6488790376
 20
1002.836276799
 10
605.7884768409
 20
1002.9671238954
 10
605.9252396983
 20
1003.0958028729
 10
606.0616523784999
 20
1003.2246606643
 10
606.1977186066
 20
1003.3536823685
 10
606.3334309322
 20
1003.4828679855
 10
606.4483039839
 20
1003.5926150377
 10
606.5629199905
 20
1003.7024812992
 10
606.6772752268
 20
1003.8124667699
 10
606.7913696926999
 20
1003.92257145
 10
606.9052033883999
 20
1004.0327953393
 10
607.0187688630999
 20
1004.143138438
 10
607.1256027383
 20
1004.2472826536
 10
607.2321944696
 20
1004.3515311773
 10
607.3385477823999
 20
1004.4558840091
 10
607.4446589512
 20
1004.5603411491
 10
607.5505279761999
 20
1004.6649025972
 10
607.668392436
 20
1004.7817202504
 10
607.7859514218999
 20
1004.898672014
 10
607.9032012087999
 20
1005.0157429869
 10
608.0201380712
 20
1005.1329406197
 10
608.1367620093
 20
1005.2502723629
 10
608.2530692977
 20
1005.3677233155
 10
608.3690562112
 20
1005.4853009279
 10
608.4847264748999
 20
1005.6030052001
 10
608.6042971176
 20
1005.725157469
 10
608.7235175830999
 20
1005.8474438484
 10
608.8423878711999
 20
1005.9698643382
 10
608.9609042568
 20
1006.0924114878
 10
609.0790630144
 20
1006.2150927479
 10
609.1968641442999
 20
1006.3379081185
 10
609.3143039209
 20
1006.4608501489
 10
609.4216369849999
 20
1006.5736593897
 10
609.52866085
 20
1006.6865803893
 10
609.6353792411999
 20
1006.7996056969
 10
609.7417809827
 20
1006.9127427633
 10
609.8478735250999
 20
1007.0259915883
 10
609.9536494177999
 20
1007.139337271
 10
610.0591086608999
 20
1007.2527947123
 10
610.164247529
 20
1007.3663564618
 10
610.2690660221
 20
1007.4800225193
 10
610.373560415
 20
1007.5938003356
 10
610.4777344329
 20
1007.7076750095
 10
610.5815768999
 20
1007.8216539915
 10
610.6791906816
 20
1007.9292180235
 10
610.7765064400999
 20
1008.0368789132
 10
610.8735279005998
 20
1008.1446217592
 10
610.9702550631999
 20
1008.2524614627
 10
611.0666804773
 20
1008.3603905733
 10
611.1686267716001
 20
1008.4749581511
 10
611.2702303392
 20
1008.5896300371
 10
611.3714949054
 20
1008.7044062312
 10
611.4724167449
 20
1008.8192792828
 10
611.5729921324
 20
1008.934249192
 10
611.6732247931
 20
1009.0493234093
 10
611.7674075825
 20
1009.1579081709
 10
611.8612811726999
 20
1009.2665823395
 10
611.9548418385
 20
1009.3753459151
 10
612.0480858547
 20
1009.484191447
 10
612.1410169465
 20
1009.5931338365
 10
612.2336276632999
 20
1009.7021507318
 10
612.3259217304999
 20
1009.8112644846
 10
612.4178916973
 20
1009.9204601939
 10
612.5095450146
 20
1010.0297378595
 10
612.6008705062
 20
1010.1391049321
 10
612.6902476710999
 20
1010.2465944583
 10
612.7793119115
 20
1010.3541733916
 10
612.8680595023
 20
1010.4618268306
 10
612.9564867181
 20
1010.5695622261
 10
613.0516194565
 20
1010.6859998996
 10
613.1463796658001
 20
1010.8025269802
 10
613.2407598954999
 20
1010.9191434677
 10
613.3347638709
 20
1011.0358568127
 10
613.4283878666999
 20
1011.1526595647
 10
613.5216281575
 20
1011.2695591743
 10
613.6091873806999
 20
1011.3798575695
 10
613.6964038772
 20
1011.490237921
 10
613.7832776469999
 20
1011.6007002289
 10
613.8698049647
 20
1011.7112370427
 10
613.9559858305
 20
1011.8218558128
 10
614.0418127937
 20
1011.9325565393
 10
614.1272933048999
 20
1012.0433317716
 10
614.2124161882
 20
1012.1541889603
 10
614.2971888942
 20
1012.2651206548
 10
614.3816076977
 20
1012.3761343057
 10
614.4641675813
 20
1012.4852331574
 10
614.5463810129
 20
1012.5944139655
 10
614.6282479924
 20
1012.7036618288
 10
614.7097685201
 20
1012.8129916484
 10
614.7924066347
 20
1012.9243778284
 10
614.8746833962999
 20
1013.0358385141
 10
614.9565913541001
 20
1013.1473811562
 10
615.0381342334
 20
1013.2589983041
 10
615.1193045837
 20
1013.3706825073
 10
615.1986644429999
 20
1013.4804519112
 10
615.277662949
 20
1013.5902883704
 10
615.3563038271999
 20
1013.7001918848
 10
615.4345796269999
 20
1013.8101699049
 10
615.5140810472
 20
1013.9224650557
 10
615.5931987625999
 20
1014.0348347123
 10
615.671932773
 20
1014.147271424
 10
615.7502868038999
 20
1014.2597826416
 10
615.8282534046
 20
1014.372368365
 10
615.905832575
 20
1014.4850211437
 10
615.9830243153
 20
1014.5977484281
  0
LINE
  5
259
330
1F
100
AcDbEntity
  8
0
  6
Continuous
 62
     7
370
    15
100
AcDbLine
 10
385.9290481371
 20
985.8506443197999
 30
0.0
 11
515.3295845551
 21
1115.2511807377
 31
0.0
  0
CIRCLE
  5
25A
330
1F
100
AcDbEntity
  8
0
  6
Continuous
 62
     7
370
    15
100
AcDbCircle
 10
421.2843801037999
 20
985.8506432971001
 30
0.0
 40
5.500000656267123
  0
CIRCLE
  5
25B
330
1F
100
AcDbEntity
  8
0
  6
Continuous
 62
     7
370
    15
100
AcDbCircle
 10
515.3295788758
 20
1079.8958490206
 30
0.0
 40
5.500001338041232
  0
CIRCLE
  5
25C
330
1F
100
AcDbEntity
  8
0
  6
Continuous
 62
     7
370
    15
100
AcDbCircle
 10
577.5549788469
 20
1017.6704494818
 30
0.0
 40
5.500001338039513
  0
CIRCLE
  5
25D
330
1F
100
AcDbEntity
  8
0
  6
Continuous
 62
     7
370
    15
100
AcDbCircle
 10
483.5097796426
 20
923.6252497783999
 30
0.0
 40
5.500000656264036
  0
LINE
  5
25E
330
1F
100
AcDbEntity
  8
0
  6
Continuous
 62
     7
370
    15
100
AcDbLine
 10
385.9290481371
 20
985.8506443197999
 30
0.0
 11
481.2876359386
 21
890.4920490677
 31
0.0
  0
LINE
  5
25F
330
1F
100
AcDbEntity
  8
0
  6
Continuous
 62
     7
370
    15
100
AcDbLine
 10
515.3295845551
 20
1115.2511807377
 30
0.0
 11
615.9830243153
 21
1014.5977484281
 31
0.0
  0
DIMENSION
  5
260
330
1F
100
AcDbEntity
  8
0
  6
Continuous
 62
     7
370
     0
100
AcDbDimension
  2
*D20
 10
359.7847895788
 20
1011.9948983389
 30
0.0
 11
368.6236243436
 21
1020.8337331038
 31
0.0
 70
   160
 42
25.0
  3
SLDDIMSTYLE0
100
AcDbAlignedDimension
 13
415.6275266644
 23
991.5075003126
 33
0.0
 14
385.9290418546
 24
985.8506460631
 34
0.0
 50
45.0
100
AcDbRotatedDimension
1001
ACAD
1000
DSTYLE
1002
{
1070
    77
1070
     3
1070
   143
1040
0.0393700787
1070
    41
1040
10.0
1070
    44
1040
4.0
1070
    42
1040
4.0
1070
   147
1040
6.096
1070
    73
1070
     0
1070
    74
1070
     0
1070
   140
1040
12.7
1070
   284
1070
    12
1070
    78
1070
    12
1002
}
  0
DIMENSION
  5
27E
330
1F
100
AcDbEntity
  8
0
  6
Continuous
 62
     7
370
     0
100
AcDbDimension
  2
*D21
 10
471.5076610062999
 20
1123.7177697664
 30
0.0
 11
424.4850600573999
 21
1076.6951688175
 31
0.0
 70
   160
 42
133.0
  3
SLDDIMSTYLE0
100
AcDbAlignedDimension
 13
415.6275266644
 23
991.5075003126
 33
0.0
 14
509.6727285622
 24
1085.5527022104
 34
0.0
 50
45.0
100
AcDbRotatedDimension
1001
ACAD
1000
DSTYLE
1002
{
1070
    77
1070
     3
1070
   143
1040
0.0393700787
1070
    41
1040
10.0
1070
    44
1040
4.0
1070
    42
1040
4.0
1070
   147
1040
6.096
1070
    73
1070
     0
1070
    74
1070
     0
1070
   140
1040
12.7
1070
   284
1070
    12
1070
    78
1070
    12
1002
}
  0
DIMENSION
  5
299
330
1F
100
AcDbEntity
  8
0
  6
Continuous
 62
     7
370
     0
100
AcDbDimension
  2
*D22
 10
362.3726918261
 20
926.9389569753
 30
0.0
 11
323.8310273493
 21
965.4806214521
 31
0.0
 70
   160
 42
25.0
  3
SLDDIMSTYLE0
100
AcDbAlignedDimension
 13
385.9290418546
 23
985.8506460631
 33
0.0
 14
415.6275266644
 24
980.1937918135999
 34
0.0
 50
-45.0
100
AcDbRotatedDimension
1001
ACAD
1000
DSTYLE
1002
{
1070
    77
1070
     3
1070
   143
1040
0.0393700787
1070
    41
1040
10.0
1070
    44
1040
4.0
1070
    42
1040
4.0
1070
   147
1040
6.096
1070
    73
1070
     0
1070
    74
1070
     0
1070
   140
1040
12.7
1070
   284
1070
    12
1070
    78
1070
    12
1002
}
  0
DIMENSION
  5
2B6
330
1F
100
AcDbEntity
  8
0
  6
Continuous
 62
     7
370
     0
100
AcDbDimension
  2
*D23
 10
424.5980885706
 20
864.7135602308999
 30
0.0
 11
393.4853901983999
 21
895.8262586030999
 31
0.0
 70
   160
 42
88.0
  3
SLDDIMSTYLE0
100
AcDbAlignedDimension
 13
415.6275266644
 23
980.1937918135999
 33
0.0
 14
477.8529234088
 24
917.9683950692
 34
0.0
 50
-45.0
100
AcDbRotatedDimension
1001
ACAD
1000
DSTYLE
1002
{
1070
    77
1070
     3
1070
   143
1040
0.0393700787
1070
    41
1040
10.0
1070
    44
1040
4.0
1070
    42
1040
4.0
1070
   147
1040
6.096
1070
    73
1070
     0
1070
    74
1070
     0
1070
   140
1040
12.7
1070
   284
1070
    12
1070
    78
1070
    12
1002
}
  0
DIMENSION
  5
2D1
330
1F
100
AcDbEntity
  8
0
  6
Continuous
 62
     7
370
     0
100
AcDbDimension
  2
*D24
 10
479.2260974217
 20
927.0748991022999
 30
0.0
 11
548.2265515095999
 21
907.6314185036
 31
0.0
 70
   163
  1
<>
 42
44.0
  3
SLDDIMSTYLE4
100
AcDbDiametricDimension
 15
487.793457895
 25
920.1755995351
 35
0.0
 40
0.0
1001
ACAD
1000
DSTYLE
1002
{
1070
    77
1070
     0
1070
   143
1040
0.0393700787
1070
    41
1040
10.0
1070
    44
1040
4.0
1070
    42
1040
4.0
1070
   147
1040
6.096
1070
    73
1070
     1
1070
    74
1070
     1
1070
   140
1040
12.7
1070
   284
1070
    12
1070
    78
1070
    12
1002
}
  0
INSERT
  5
2F7
330
1F
100
AcDbEntity
  8
0
  6
Continuous
 62
     7
370
     0
100
AcDbBlockReference
  2
SW_CENTERMARKSYMBOL_4
 10
421.2843776506999
 20
985.8506443197999
 30
0.0
  0
INSERT
  5
303
330
1F
100
AcDbEntity
  8
0
  6
Continuous
 62
     7
370
     0
100
AcDbBlockReference
  2
SW_CENTERMARKSYMBOL_5
 10
515.3295845551
 20
1079.8958512242
 30
0.0
  0
INSERT
  5
30F
330
1F
100
AcDbEntity
  8
0
  6
Continuous
 62
     7
370
     0
100
AcDbBlockReference
  2
SW_CENTERMARKSYMBOL_6
 10
577.5549794373
 20
1017.6704498227
 30
0.0
  0
INSERT
  5
31B
330
1F
100
AcDbEntity
  8
0
  6
Continuous
 62
     7
370
     0
100
AcDbBlockReference
  2
SW_CENTERMARKSYMBOL_7
 10
483.5097790522
 20
923.6252494374999
 30
0.0
  0
INSERT
  5
327
330
1F
100
AcDbEntity
  8
0
  6
Continuous
 62
     7
370
    15
100
AcDbBlockReference
  2
SW_PROJECTIONARROW_0
 10
0.0
 20
0.0
 30
0.0
  0
ENDSEC
  0
SECTION
  2
OBJECTS
  0
DICTIONARY
  5
C
330
0
100
AcDbDictionary
281
     1
  3
ACAD_COLOR
350
32B
  3
ACAD_GROUP
350
D
  3
ACAD_LAYOUT
350
1A
  3
ACAD_MATERIAL
350
32A
  3
ACAD_MLINESTYLE
350
17
  3
ACAD_PLOTSETTINGS
350
19
  3
ACAD_PLOTSTYLENAME
350
E
  3
ACDBHEADERROUNDTRIPXREC
350
334
  3
AcDbVariableDictionary
350
330
  0
DICTIONARY
  5
32B
102
{ACAD_REACTORS
330
C
102
}
330
C
100
AcDbDictionary
281
     1
  0
DICTIONARY
  5
D
102
{ACAD_REACTORS
330
C
102
}
330
C
100
AcDbDictionary
281
     1
  0
DICTIONARY
  5
1A
102
{ACAD_REACTORS
330
C
102
}
330
C
100
AcDbDictionary
281
     1
  3
Layout1
350
1E
  3
Layout2
350
26
  3
Model
350
22
  0
DICTIONARY
  5
32A
102
{ACAD_REACTORS
330
C
102
}
330
C
100
AcDbDictionary
281
     1
  0
DICTIONARY
  5
17
102
{ACAD_REACTORS
330
C
102
}
330
C
100
AcDbDictionary
281
     1
  3
Standard
350
18
  0
DICTIONARY
  5
19
102
{ACAD_REACTORS
330
C
102
}
330
C
100
AcDbDictionary
281
     1
  0
ACDBDICTIONARYWDFLT
  5
E
102
{ACAD_REACTORS
330
C
102
}
330
C
100
AcDbDictionary
281
     1
  3
Normal
350
F
100
AcDbDictionaryWithDefault
340
F
  0
DICTIONARY
  5
334
102
{ACAD_REACTORS
330
C
102
}
330
C
100
AcDbDictionary
281
     1
  0
DICTIONARY
  5
330
102
{ACAD_REACTORS
330
C
102
}
330
C
100
AcDbDictionary
281
     1
  3
DIMASSOC
350
331
  3
PROJECTNAME
350
332
  0
LAYOUT
  5
1E
102
{ACAD_XDICTIONARY
360
335
102
}
102
{ACAD_REACTORS
330
1A
102
}
330
1A
100
AcDbPlotSettings
  1

  2

  4

  6

 40
0.0
 41
0.0
 42
0.0
 43
0.0
 44
0.0
 45
0.0
 46
0.0
 47
0.0
 48
0.0
 49
0.0
140
0.0
141
0.0
142
1.0
143
1.0
 70
   688
 72
     0
 73
     0
 74
     5
  7

 75
    16
147
1.0
148
0.0
149
0.0
100
AcDbLayout
  1
Layout1
 70
     1
 71
     1
 10
0.0
 20
0.0
 11
420.0
 21
297.0
 12
0.0
 22
0.0
 32
0.0
 14
1.000000000000000E+20
 24
1.000000000000000E+20
 34
1.000000000000000E+20
 15
-1.000000000000000E+20
 25
-1.000000000000000E+20
 35
-1.000000000000000E+20
146
0.0
 13
0.0
 23
0.0
 33
0.0
 16
1.0
 26
0.0
 36
0.0
 17
0.0
 27
1.0
 37
0.0
 76
     0
330
1B
  0
LAYOUT
  5
26
102
{ACAD_XDICTIONARY
360
339
102
}
102
{ACAD_REACTORS
330
1A
102
}
330
1A
100
AcDbPlotSettings
  1

  2

  4

  6

 40
0.0
 41
0.0
 42
0.0
 43
0.0
 44
0.0
 45
0.0
 46
0.0
 47
0.0
 48
0.0
 49
0.0
140
0.0
141
0.0
142
1.0
143
1.0
 70
   688
 72
     0
 73
     0
 74
     5
  7

 75
    16
147
1.0
148
0.0
149
0.0
100
AcDbLayout
  1
Layout2
 70
     1
 71
     2
 10
0.0
 20
0.0
 11
0.0
 21
0.0
 12
0.0
 22
0.0
 32
0.0
 14
0.0
 24
0.0
 34
0.0
 15
0.0
 25
0.0
 35
0.0
146
0.0
 13
0.0
 23
0.0
 33
0.0
 16
1.0
 26
0.0
 36
0.0
 17
0.0
 27
1.0
 37
0.0
 76
     0
330
23
  0
LAYOUT
  5
22
102
{ACAD_XDICTIONARY
360
337
102
}
102
{ACAD_REACTORS
330
1A
102
}
330
1A
100
AcDbPlotSettings
  1

  2

  4

  6

 40
0.0
 41
0.0
 42
0.0
 43
0.0
 44
0.0
 45
0.0
 46
0.0
 47
0.0
 48
0.0
 49
0.0
140
0.0
141
0.0
142
1.0
143
1.0
 70
  1712
 72
     0
 73
     0
 74
     0
  7

 75
     0
147
1.0
148
0.0
149
0.0
100
AcDbLayout
  1
Model
 70
     1
 71
     0
 10
0.0
 20
0.0
 11
0.0
 21
0.0
 12
0.0
 22
0.0
 32
0.0
 14
0.0
 24
0.0
 34
0.0
 15
840.0
 25
1188.0
 35
0.0
146
0.0
 13
0.0
 23
0.0
 33
0.0
 16
1.0
 26
0.0
 36
0.0
 17
0.0
 27
1.0
 37
0.0
 76
     0
330
1F
  0
MLINESTYLE
  5
18
102
{ACAD_REACTORS
330
17
102
}
330
17
100
AcDbMlineStyle
  2
STANDARD
 70
     0
  3

 62
   256
 51
90.0
 52
90.0
 71
     2
 49
0.5
 62
   256
  6
BYLAYER
 49
-0.5
 62
   256
  6
BYLAYER
  0
ACDBPLACEHOLDER
  5
F
102
{ACAD_REACTORS
330
E
102
}
330
E
  0
DICTIONARYVAR
  5
331
102
{ACAD_REACTORS
330
330
102
}
330
330
100
DictionaryVariables
280
     0
  1
1
  0
DICTIONARYVAR
  5
332
102
{ACAD_REACTORS
330
330
102
}
330
330
100
DictionaryVariables
280
     0
  1

  0
DICTIONARY
  5
335
330
1E
100
AcDbDictionary
280
     1
281
     1
  3
ACAD_XREC_ROUNDTRIP
360
336
  0
DICTIONARY
  5
339
330
26
100
AcDbDictionary
280
     1
281
     1
  3
ACAD_XREC_ROUNDTRIP
360
33A
  0
DICTIONARY
  5
337
330
22
100
AcDbDictionary
280
     1
281
     1
  3
ACAD_XREC_ROUNDTRIP
360
338
  0
XRECORD
  5
336
102
{ACAD_REACTORS
330
335
102
}
330
335
100
AcDbXrecord
280
     1
102
SHADEPLOT
 70
     0
102
SHADEPLOTRESLEVEL
 70
     2
102
SHADEPLOTCUSTOMDPI
 70
   300
  0
XRECORD
  5
33A
102
{ACAD_REACTORS
330
339
102
}
330
339
100
AcDbXrecord
280
     1
102
SHADEPLOT
 70
     0
102
SHADEPLOTRESLEVEL
 70
     2
102
SHADEPLOTCUSTOMDPI
 70
   300
  0
XRECORD
  5
338
102
{ACAD_REACTORS
330
337
102
}
330
337
100
AcDbXrecord
280
     1
102
SHADEPLOT
 70
     0
102
SHADEPLOTRESLEVEL
 70
     2
102
SHADEPLOTCUSTOMDPI
 70
   300
  0
ENDSEC
  0
EOF
